<?xml version="1.0" standalone="no"?>
<!DOCTYPE svg PUBLIC "-//W3C//DTD SVG 1.1//EN" "http://www.w3.org/Graphics/SVG/1.1/DTD/svg11.dtd" >
<svg xmlns="http://www.w3.org/2000/svg">
<metadata>
This is a custom SVG webfont generated by Font Squirrel.
Copyright   : Copyright 2010 Anton Koovit
Designer    : Anton Koovit
Foundry     : Anton Koovit
Foundry URL : httpwwwkorkorkcom
</metadata>
<defs>
<font id="ArvoRegular" horiz-adv-x="1542" >
<font-face units-per-em="2048" ascent="1638" descent="-410" />
<missing-glyph horiz-adv-x="448" />
<glyph unicode=" " horiz-adv-x="448" d="M0 0z" />
<glyph unicode="!" horiz-adv-x="682" d="M211 121q0 26 10.5 49.5t28 41t41.5 28t51 10.5q26 0 49.5 -10.5t41 -28t28 -41t10.5 -49.5q0 -27 -10.5 -51t-28 -42.5t-41 -29t-49.5 -10.5q-27 0 -51 10.5t-41.5 29t-28 42.5t-10.5 51zM211 1577h260l-41 -1167h-178z" />
<glyph unicode="&#x22;" horiz-adv-x="651" d="M41 1577h228l-18 -518h-169zM405 1577h230l-47 -518h-169z" />
<glyph unicode="#" horiz-adv-x="1423" d="M20 389l41 195h239l82 415h-253l41 199h252l63 318h191l-62 -318h351l63 318h191l-62 -318h225l-39 -199h-225l-81 -415h239l-37 -195h-240l-75 -389h-193l76 389h-351l-75 -389h-197l77 389h-241zM494 584h351l81 415h-351z" />
<glyph unicode="$" horiz-adv-x="1210" d="M150 303v172h251v-11l2 1q0 -81 56 -123.5t166 -42.5q100 0 158.5 39t58.5 111q0 37 -19.5 62t-49 41.5t-65.5 26.5t-69 19l-176 47q-57 15 -105 39.5t-82.5 60.5t-53.5 85t-19 114q0 58 21 107.5t61 87.5t98.5 63t132.5 36v341h197v-342q85 -15 147 -54t100 -93h101 v-172h-209l-23 -3v3h-2v22q-10 65 -65 105t-146 40q-109 0 -166 -35.5t-57 -97.5q0 -42 18.5 -67t46.5 -40.5t61.5 -24t64.5 -17.5l174 -53q66 -20 118.5 -45.5t88.5 -59.5t55.5 -79.5t19.5 -106.5q0 -62 -23.5 -115.5t-66.5 -95.5t-103.5 -71t-133.5 -41v-322h-197v322 q-99 16 -156.5 61t-90.5 106h-119z" />
<glyph unicode="%" horiz-adv-x="1730" d="M75 1167q0 67 25 127.5t70.5 106t108.5 72t138 26.5t138 -26.5t108 -72t70.5 -106t25.5 -127.5q0 -68 -24.5 -128t-69.5 -106t-108 -72.5t-140 -26.5q-78 0 -141 26.5t-107.5 72.5t-69 106t-24.5 128zM212 -16l1040 1556h195l-1041 -1556h-194zM244 1167 q0 -35 13.5 -66.5t37 -55t55 -37t67.5 -13.5q35 0 66 13.5t54 36.5t36.5 54.5t13.5 67.5t-13.5 67t-36.5 53.5t-54 35t-66 12.5q-36 0 -67.5 -12.5t-55 -35t-37 -53.5t-13.5 -67zM941 323q0 67 25 127t70.5 105.5t108.5 72.5t138 27t138 -27t108.5 -72.5t70.5 -105.5 t25 -127q0 -68 -24.5 -128.5t-69 -106t-107.5 -72.5t-141 -27t-141 27t-107.5 72.5t-69 106t-24.5 128.5zM1111 323q0 -35 13.5 -66.5t37 -55t55 -37t66.5 -13.5t66 13.5t54 36.5t36.5 54.5t13.5 67.5t-13.5 66.5t-36.5 53t-54 35.5t-66 13t-66.5 -13t-55 -35.5t-37 -53 t-13.5 -66.5z" />
<glyph unicode="&#x26;" horiz-adv-x="1468" d="M143 426q0 61 18.5 118.5t51 107.5t76 90t135.5 87l-66 64q-26 24 -50.5 55t-43 67t-30 75t-11.5 77q0 80 31 149t84.5 120t125.5 80.5t154 29.5q87 0 161.5 -31t128.5 -83t85 -121t31 -144q0 -60 -12 -105.5t-34 -81.5t-52.5 -65.5t-65 -54.5t-70.5 -45.5t-74 -39.5 l306 -285q32 73 51.5 144.5t30.5 129.5h188q-17 -94 -52 -195t-89 -198l276 -256l-139 -121l-236 228q-42 -52 -91 -95t-104.5 -74.5t-118 -49t-132.5 -17.5q-97 0 -181.5 34t-147 93t-98.5 139.5t-36 173.5zM322 430q0 -58 22.5 -107.5t62 -85.5t93 -56.5t114.5 -20.5 q52 0 98 13t86 36.5t73.5 56t62.5 70.5l-380 367l-81 -37q-34 -14 -61.5 -38.5t-47.5 -56t-31 -68t-11 -73.5zM397 1169q0 -42 20.5 -88.5t74.5 -97.5l89 -83q59 26 111 56t92 70q26 28 44 64.5t18 76.5q0 42 -18.5 81t-49.5 69t-72.5 47.5t-87.5 17.5q-50 0 -90.5 -16.5 t-69.5 -45.5t-45 -67.5t-16 -83.5z" />
<glyph unicode="'" horiz-adv-x="340" d="M37 1059v518l227 16l-48 -534h-179z" />
<glyph unicode="(" horiz-adv-x="721" d="M141 590q0 142 27 280.5t77.5 269.5t122.5 254.5t162 235.5l138 -110q-79 -100 -140.5 -211t-103.5 -229t-64 -241.5t-22 -248.5t22 -248.5t64 -242t103.5 -229t140.5 -210.5l-138 -111q-90 112 -162 235.5t-122.5 255t-77.5 270t-27 280.5z" />
<glyph unicode=")" horiz-adv-x="721" d="M53 -340q79 100 140.5 210.5t103.5 229t64 242t22 248.5t-22 248.5t-64 241.5t-103.5 229t-140.5 211l137 110q90 -112 162 -235.5t123 -254.5t78 -269.5t27 -280.5t-27 -280.5t-78 -270t-123 -255t-162 -235.5z" />
<glyph unicode="*" horiz-adv-x="836" d="M59 1257l39 125l252 -82v246h133v-251l248 81l37 -119l-249 -80l157 -214l-109 -72l-149 206l-148 -204l-108 70l155 212z" />
<glyph unicode="+" horiz-adv-x="1311" d="M143 608v183h420v419h182v-419h422v-183h-422v-422h-182v422h-420z" />
<glyph unicode="," horiz-adv-x="569" d="M20 -287l185 570l219 -86l-260 -537z" />
<glyph unicode="-" horiz-adv-x="737" d="M94 496v172h551v-172h-551z" />
<glyph unicode="." horiz-adv-x="456" d="M96 121q0 26 10.5 49.5t28.5 41t41.5 28t50.5 10.5q26 0 49.5 -10.5t41 -28t28 -41t10.5 -49.5q0 -27 -10.5 -51t-28 -42.5t-41 -29t-49.5 -10.5q-27 0 -50.5 10.5t-41.5 29t-28.5 42.5t-10.5 51z" />
<glyph unicode="/" horiz-adv-x="848" d="M37 -29l600 1598h174l-600 -1598h-174z" />
<glyph unicode="0" horiz-adv-x="1330" d="M88 756q0 173 38 323.5t102 241.5t161.5 155t267.5 64q161 0 268 -51t176.5 -156.5t97.5 -254.5t28 -316q0 -163 -28 -305t-94.5 -247.5t-176.5 -166.5t-273 -61q-162 0 -271 60t-174.5 165t-93.5 246t-28 303zM293 762q0 -124 12.5 -233.5t51 -191.5t110 -129.5 t188.5 -47.5t188.5 47.5t108 129.5t54.5 191.5t18 233.5q0 119 -14 228.5t-54 193.5t-112 134t-187 50q-119 0 -188 -50t-103 -120.5t-53.5 -193.5t-19.5 -242z" />
<glyph unicode="1" horiz-adv-x="858" d="M82 1114v209l422 236h80v-1387h149v-172h-491v172h147v1109z" />
<glyph unicode="2" horiz-adv-x="1100" d="M86 1104q1 95 37 175.5t96.5 139t140.5 91t168 32.5q102 0 185 -32.5t142 -89.5t91.5 -135t32.5 -169q0 -36 -8.5 -76.5t-29 -87t-54 -99.5t-84.5 -114l-473 -563h647v-176h-889v147l533 644q27 32 56.5 69t55 78t42 85.5t16.5 92.5q0 50 -20 94t-55 77t-83.5 52 t-106.5 19q-52 0 -98.5 -16.5t-81.5 -48.5t-56.5 -79.5t-23.5 -109.5h-180z" />
<glyph unicode="3" horiz-adv-x="1110" d="M41 365h192q29 -93 103.5 -146t189.5 -53q52 0 101.5 21t87.5 58.5t61 88t23 110.5q0 63 -23 114t-62 86.5t-90.5 55t-109.5 19.5h-86v151h70q66 0 118.5 19.5t88.5 53.5t55.5 79.5t19.5 97.5q0 39 -16.5 83.5t-51 82t-87 62t-123.5 24.5q-59 0 -107.5 -20.5t-96.5 -76.5 t-52 -124h-190q5 87 43.5 157t97.5 123t138 84t165 31q107 0 194 -35.5t148.5 -94t95 -133.5t33.5 -153q0 -48 -12 -96t-37.5 -91.5t-65.5 -80.5t-97 -65q47 -18 88.5 -50.5t72.5 -77.5t49 -102t18 -125q0 -98 -38 -181.5t-103 -144.5t-152.5 -95.5t-187.5 -34.5 q-92 0 -182.5 32.5t-153.5 92.5t-93 125t-36 129z" />
<glyph unicode="4" horiz-adv-x="1251" d="M90 438l2 158l539 920h213l-513 -906h388v250l196 14v-264h226v-172h-226v-266h150v-172h-492v172h146v266h-629z" />
<glyph unicode="5" horiz-adv-x="1139" d="M74 289l164 82q16 -51 47 -94.5t73 -75t93 -49t108 -17.5q72 0 133.5 26.5t107 72.5t71.5 107.5t26 131.5q0 71 -26 131.5t-72 105t-107.5 70t-132.5 25.5q-80 0 -147.5 -28.5t-112.5 -76.5l-147 23v793h854v-166h-689v-456q56 38 115 57.5t135 19.5q112 0 206 -40 t161.5 -108t105 -158.5t37.5 -191.5q0 -102 -37 -193.5t-105 -160.5t-163.5 -109.5t-212.5 -40.5q-89 0 -166 23.5t-139 66t-107.5 101.5t-72.5 129z" />
<glyph unicode="6" horiz-adv-x="1249" d="M94 488q0 88 33.5 174t83.5 180l371 674h233l-340 -567q61 26 110.5 30t88.5 4q92 0 178 -34.5t152.5 -97t106.5 -149t40 -190.5q0 -127 -43 -226t-116 -167t-169.5 -103.5t-204.5 -35.5q-102 0 -196.5 37t-167.5 103.5t-116.5 160t-43.5 207.5zM281 486q0 -78 26 -140 t72 -104.5t108.5 -65t135.5 -22.5q68 0 130 24t109 68t75 105t28 135q0 82 -30 144.5t-80.5 104.5t-117.5 63t-141 21q-72 0 -122.5 -22.5t-95.5 -63t-71 -103t-26 -144.5z" />
<glyph unicode="7" horiz-adv-x="1077" d="M41 1206v310h995v-150q-66 -130 -138 -275.5t-142.5 -298.5t-136.5 -310t-120 -310h126v-172h-443v172h117q54 154 119 312.5t132 308.5t132 285.5t119 244.5h-568v-117h-192z" />
<glyph unicode="8" horiz-adv-x="1276" d="M139 442q0 61 16.5 118.5t47 107t73 91t94.5 71.5q-76 55 -120.5 137.5t-44.5 179.5q0 82 33 154.5t90.5 126.5t135.5 85t167 31q86 0 162.5 -31t134.5 -85t91.5 -126.5t33.5 -154.5q0 -98 -46 -181t-123 -137q51 -30 93 -71.5t72 -91t46.5 -106.5t16.5 -118 q0 -95 -38.5 -178t-104.5 -145.5t-154 -98.5t-188 -36q-101 0 -190 36t-155 98.5t-104.5 145.5t-38.5 178zM322 446q0 -59 24 -111.5t65.5 -91.5t97 -62t118.5 -23q62 0 117 23t96.5 62t65.5 91.5t24 111.5q0 58 -24 110t-65.5 91t-96.5 61.5t-117 22.5q-63 0 -118.5 -22.5 t-97 -61.5t-65.5 -91t-24 -110zM377 1143q0 -50 19 -93.5t53 -76t80.5 -51.5t101.5 -19q51 0 96 19t79.5 51.5t54.5 76t20 93.5q0 49 -20 92.5t-54.5 76t-79.5 51.5t-96 19q-55 0 -101.5 -19t-80.5 -51.5t-53 -76t-19 -92.5z" />
<glyph unicode="9" horiz-adv-x="1270" d="M103 1009q0 127 43 226t116 167t169.5 103.5t204.5 35.5t201.5 -36t166.5 -103.5t114.5 -161t41.5 -207.5q0 -88 -33.5 -174t-83.5 -180l-380 -679h-233l349 572q-50 -20 -91 -27t-88 -7q-88 0 -182.5 34.5t-161 97t-110 154t-43.5 185.5zM289 1035q0 -82 30 -144.5 t80.5 -104.5t113 -63t125.5 -21q92 0 142.5 22.5t95.5 63t71 103t26 144.5q0 78 -26 140t-72 104.5t-108.5 65t-135.5 22.5q-68 0 -130 -24t-109 -68t-75 -105t-28 -135z" />
<glyph unicode=":" horiz-adv-x="524" d="M96 121q0 26 10.5 49.5t28.5 41t41.5 28t50.5 10.5q26 0 49.5 -10.5t41 -28t28 -41t10.5 -49.5q0 -27 -10.5 -51t-28 -42.5t-41 -29t-49.5 -10.5q-27 0 -50.5 10.5t-41.5 29t-28.5 42.5t-10.5 51zM96 907q0 26 10.5 49.5t28.5 41t41.5 28t50.5 10.5q26 0 49.5 -10.5 t41 -28t28 -41t10.5 -49.5q0 -27 -10.5 -51t-28 -42t-41 -29t-49.5 -11q-27 0 -50.5 11t-41.5 29t-28.5 42t-10.5 51z" />
<glyph unicode=";" horiz-adv-x="524" d="M-20 -287l184 570l219 -86l-260 -537zM96 907q0 26 10.5 49.5t28.5 41t41.5 28t50.5 10.5q26 0 49.5 -10.5t41 -28t28 -41t10.5 -49.5q0 -27 -10.5 -51t-28 -42t-41 -29t-49.5 -11q-27 0 -50.5 11t-41.5 29t-28.5 42t-10.5 51z" />
<glyph unicode="&#x3c;" horiz-adv-x="1001" d="M10 605v156l843 423v-185l-678 -315l678 -315v-185z" />
<glyph unicode="=" horiz-adv-x="922" d="M86 305v141h750v-141h-750zM86 643v141h750v-141h-750z" />
<glyph unicode="&#x3e;" horiz-adv-x="1147" d="M164 184v185l678 315l-678 315v185l843 -423v-156z" />
<glyph unicode="?" horiz-adv-x="1065" d="M121 1137q5 84 40.5 159t95.5 131.5t142 90t181 33.5q100 0 177.5 -33t130.5 -88t80 -127.5t27 -151.5q0 -102 -52 -188t-155 -158q-47 -33 -107.5 -85t-86 -128.5t-29.5 -128t-4 -127.5h-180q0 104 7.5 176.5t28.5 133t58 105.5t96 95q53 45 96.5 78t74.5 64.5t48 68 t17 88.5q0 45 -18 87t-48.5 74.5t-72 52.5t-88.5 20q-81 0 -135 -28t-87 -67.5t-47 -83.5t-14 -75zM338 121q0 26 10.5 49.5t28 41t41.5 28t51 10.5q26 0 49.5 -10.5t41 -28t28 -41t10.5 -49.5q0 -27 -10.5 -51t-28 -42.5t-41 -29t-49.5 -10.5q-27 0 -51 10.5t-41.5 29 t-28 42.5t-10.5 51z" />
<glyph unicode="@" horiz-adv-x="2310" d="M145 494q0 137 35.5 264.5t100.5 238.5t156.5 202t202.5 156t239 100.5t266 35.5q140 0 268.5 -34.5t239.5 -96.5t202 -149t155.5 -192t100 -224.5t35.5 -247.5q0 -68 -13 -137t-39 -132t-63.5 -118t-87 -95.5t-109.5 -64t-130 -23.5q-92 0 -154 40t-97 103 q-63 -52 -142 -81t-170 -29q-105 0 -192.5 36.5t-151.5 100.5t-99.5 149t-35.5 183q0 97 37 182.5t101.5 149.5t152 101.5t188.5 37.5q73 0 140 -20t124 -57v83h184v-663q0 -61 17.5 -92t41.5 -45.5t61 -14.5q74 0 123 40.5t78 97.5t40.5 117.5t11.5 150.5q0 102 -29 197.5 t-81.5 180t-126.5 155t-165 121t-196 78.5t-219 28q-113 0 -217.5 -29t-195 -82t-165 -127t-127 -164.5t-81.5 -194.5t-29 -216q0 -113 29 -217.5t81.5 -195.5t127 -165t165 -127t195 -82t217.5 -29q115 0 222 30.5t200 86.5l94 -157q-113 -69 -243.5 -106.5t-272.5 -37.5 q-138 0 -266 35.5t-239 100.5t-202.5 156.5t-156.5 202.5t-100.5 239t-35.5 266zM846 479q0 -59 21 -110.5t59.5 -90t93 -61t121.5 -22.5q94 0 162 43.5t102 112.5v253q-17 35 -43.5 65t-60.5 51.5t-74.5 33.5t-85.5 12q-64 0 -118 -23t-93.5 -62t-61.5 -91.5t-22 -110.5z " />
<glyph unicode="A" d="M10 0v172h132l472 1344h295l471 -1344h152v-172h-492v172h126l-120 344h-583l-117 -344h156v-172h-492zM520 682h468l-236 678z" />
<glyph unicode="B" horiz-adv-x="1352" d="M143 0v172h144v1171h-144v175l682 -2q92 0 173 -34.5t141 -94t94.5 -140.5t34.5 -174q0 -97 -54 -177t-154 -128q49 -26 89 -60.5t68 -75.5t43.5 -87t15.5 -94q0 -95 -34.5 -177t-94.5 -143t-140.5 -96t-172.5 -35h-691zM483 172h353q48 0 89 24t72 62.5t48.5 87.5 t17.5 100q0 44 -18 85t-48.5 73t-72 51t-88.5 19h-353v-502zM483 848h344q48 0 89.5 19t72 51t48.5 74t18 87q0 49 -18 96.5t-49 84.5t-72.5 60t-88.5 23h-344v-495z" />
<glyph unicode="C" horiz-adv-x="1509" d="M72 760q0 162 53.5 306t150 250.5t230 168t289.5 61.5q139 0 240 -39.5t171.5 -94t121.5 -118.5h106v-178h-215q-67 114 -177.5 179t-246.5 65q-116 0 -212 -49t-164.5 -131.5t-106.5 -191t-38 -228.5q0 -142 42 -251.5t109.5 -182t160.5 -121t209 -48.5q158 0 275 76.5 t200 251.5l176 -83q-38 -108 -129 -208.5t-224.5 -162t-295.5 -61.5q-155 0 -285 58.5t-231.5 166.5t-155 256t-53.5 309z" />
<glyph unicode="D" horiz-adv-x="1507" d="M143 0v172h144v1171h-144v173h564q104 0 198 -27t175 -76t147 -117.5t112.5 -152.5t71.5 -180.5t25 -200.5q0 -106 -25 -203t-71.5 -182t-112.5 -154.5t-147 -119t-175 -76.5t-198 -27h-564zM483 172h236q105 0 197.5 46t161.5 125.5t109 187t40 231.5q0 122 -40 228 t-109 184.5t-161.5 123.5t-197.5 45h-236v-1171z" />
<glyph unicode="E" horiz-adv-x="1286" d="M143 0v172h144v1171h-144v173h1086v-429h-205v256h-541v-485h455v-172h-455v-514h541v256h205v-428h-1086z" />
<glyph unicode="F" horiz-adv-x="1243" d="M143 0v172h144v1171h-144v173h1086v-429h-205v256h-541v-487h521v-168h-521v-516h152v-172h-492z" />
<glyph unicode="G" horiz-adv-x="1683" d="M72 760q0 162 53.5 306t150 251t230 168t289.5 61q144 0 247.5 -41t177 -99.5t117.5 -111.5h97v-178h-215q-67 114 -177 180q-108 64 -240 64h-8q-115 0 -211 -49t-164.5 -132t-106.5 -191t-38 -228q0 -133 42 -247t107 -185t160.5 -117.5t211.5 -46.5q192 0 315 93.5 t172 291.5h-424v172h641v-727h-186v304q-38 -79 -95 -137.5t-127 -96.5t-149.5 -57t-161.5 -19q-148 0 -273 49.5t-226.5 157.5t-155 256t-53.5 309z" />
<glyph unicode="H" horiz-adv-x="1843" d="M143 0v172h144v1172h-144v172h492v-172h-152v-459h877v459h-152v172h492v-172h-144v-1172h144v-172h-492v172h152v545h-877v-545h152v-172h-492z" />
<glyph unicode="I" horiz-adv-x="770" d="M143 0v172h144v1171h-144v173h484v-173h-144v-1171h144v-172h-484z" />
<glyph unicode="J" horiz-adv-x="682" d="M102 -223q59 90 106 172q20 35 39 71.5t34 70.5t24.5 63.5t9.5 50.5v1138h-165v173h491v-173h-127v-1171q0 -22 -10.5 -51.5t-27 -62.5t-38.5 -67.5t-44 -67.5q-53 -77 -120 -161z" />
<glyph unicode="K" horiz-adv-x="1567" d="M143 0v172h144v1171h-142v173h492v-173h-154v-1171h152v-172h-492zM485 774l662 569v173h348v-173h-119l-664 -559l621 -612h162v-172h-408v172z" />
<glyph unicode="L" horiz-adv-x="1296" d="M143 0v172h144v1171h-144v173h492v-173h-152v-1171h523q16 0 32 7.5t29 19.5t21 27.5t8 31.5v191h190v-449h-1143z" />
<glyph unicode="M" horiz-adv-x="2189" d="M143 0v172h144v1153h-144v191h480l481 -1309l487 1309h455v-191h-143v-1153h143v-172h-492v172h162v1164l-530 -1336h-170l-537 1339v-1167h156v-172h-492z" />
<glyph unicode="N" horiz-adv-x="1624" d="M143 1343v175h408l692 -1245l8 48v1022h-170v173h492v-173h-129v-1343h-256l-705 1257v-1085h156v-172h-492v172h140v1171h-144z" />
<glyph unicode="O" horiz-adv-x="1597" d="M72 758q0 164 53.5 308t150 250.5t230 168t293.5 61.5q161 0 295 -61.5t230 -168t149 -250.5t53 -308t-53.5 -307.5t-150 -250.5t-230 -168.5t-293.5 -61.5q-157 0 -287 58.5t-232 166.5t-155 256t-53 307zM276 758q0 -140 41 -249.5t108.5 -182t161 -121.5t212.5 -49 t215.5 49t164.5 131.5t105 191.5t37 230q0 124 -40.5 239.5t-113 195.5t-168.5 123.5t-200 43.5q-119 0 -216 -49t-165 -131.5t-105 -192t-37 -229.5z" />
<glyph unicode="P" horiz-adv-x="1272" d="M143 0v172h144v1171h-144v173h613q102 0 187.5 -26.5t148 -78t97 -128.5t34.5 -177q0 -83 -34 -156.5t-96 -128.5t-148.5 -87t-192.5 -32h-269v-530h152v-172h-492zM483 866h273q57 0 104.5 15.5t82 45.5t54 75t19.5 104q0 112 -68 174.5t-217 62.5h-248v-477z" />
<glyph unicode="Q" horiz-adv-x="1597" d="M72 758q0 164 53.5 308t150 250.5t230 168t293.5 61.5q161 0 295 -61.5t230 -168t149 -250.5t53 -308q0 -152 -46.5 -286.5t-130.5 -239t-201 -172.5t-258 -85q65 -17 104 -40t98 -52.5t118 -29.5q57 0 101.5 28.5t58.5 87.5l152 -69q-12 -56 -44.5 -98.5t-76 -71 t-93.5 -42.5t-98 -14q-77 0 -144.5 28t-141.5 68t-142 40q-41 0 -84 -13v179q-140 19 -255.5 87t-198 172.5t-127.5 238.5t-45 284zM276 758q0 -137 40.5 -247t107.5 -183.5t166.5 -122.5t208.5 -49q119 0 215.5 49t164.5 131.5t105 191.5t37 230q0 124 -40.5 238.5 t-113.5 195.5t-166 124.5t-202 43.5q-119 0 -216 -49t-165 -131.5t-105 -192t-37 -229.5z" />
<glyph unicode="R" horiz-adv-x="1458" d="M143 0v172h144v1171h-144v173h631q101 0 186.5 -26.5t148 -78t97.5 -128.5t35 -177q0 -57 -20.5 -112.5t-57 -103t-86.5 -84.5t-109 -57q25 -11 50.5 -31.5t48 -50t41 -67t29.5 -80.5l84 -330h131l2 -190h-295l-113 461q-31 124 -94.5 182.5t-173.5 58.5h-195v-530h152 v-172h-492zM483 866h291q57 0 104.5 15t82 45t54 74.5t19.5 103.5q0 113 -68 176t-216 63h-267v-477z" />
<glyph unicode="S" horiz-adv-x="1210" d="M80 283v172h252q0 -111 23.5 -157t65.5 -76.5t100 -46t128 -15.5q68 0 122.5 16t93 46.5t59 74t20.5 98.5q0 61 -25.5 103.5t-65.5 72.5t-87.5 49t-91.5 33l-219 62q-72 22 -131.5 56t-102 83t-65.5 114.5t-23 151.5q0 87 34 163t100 133t161.5 89.5t218.5 32.5 q81 0 149.5 -19t124 -53.5t98 -83t71.5 -106.5h75v-172h-245q0 88 -32 132t-70.5 67.5t-84.5 36t-92 12.5q-76 0 -133 -17.5t-94.5 -47.5t-56.5 -70t-19 -84q0 -66 23.5 -106.5t59.5 -65t79.5 -38.5t83.5 -28l202 -66q91 -29 160.5 -66t116.5 -87.5t71.5 -116.5t24.5 -153 q0 -94 -38.5 -174t-107.5 -139t-164.5 -92.5t-209.5 -33.5q-117 0 -200 26.5t-139.5 71t-90.5 101.5t-53 117h-76z" />
<glyph unicode="T" horiz-adv-x="1434" d="M41 1116v400h1352v-400h-205v236h-400v-1180h156v-172h-491v172h139v1180h-346v-236h-205z" />
<glyph unicode="U" horiz-adv-x="1550" d="M113 1343v173h491v-173h-155v-706q0 -127 28.5 -216.5t79 -146t120 -82.5t152.5 -26q86 0 158 23t123.5 77.5t80 145t28.5 225.5v706h-164v173h491v-173h-135v-684q0 -164 -45.5 -291t-124.5 -213t-186 -130.5t-230 -44.5q-120 0 -224.5 44t-182 129t-122 207.5 t-44.5 280.5v702h-139z" />
<glyph unicode="V" horiz-adv-x="1485" d="M-10 1343v173h492v-173h-132l389 -1169l417 1169h-143v173h492v-173h-131l-491 -1343h-275l-484 1343h-134z" />
<glyph unicode="W" horiz-adv-x="2560" d="M10 1343v173h492v-173h-132l367 -1165l387 1338h299l412 -1338l374 1165h-151v173h492v-173h-132l-433 -1343h-306l-411 1321l-379 -1321h-303l-442 1343h-134z" />
<glyph unicode="X" horiz-adv-x="1500" d="M170 0v172h99l432 603l-408 568h-123v173h492v-173h-146l295 -415l298 415h-159v173h492v-173h-112l-410 -569l428 -602h94v-172h-492v172h185l-324 451l-326 -451h177v-172h-492z" />
<glyph unicode="Y" horiz-adv-x="1354" d="M51 1343v173h492v-173h-144l285 -487l305 487h-158v173h492v-173h-129l-426 -646v-525h156v-172h-492v172h139v530l-402 641h-118z" />
<glyph unicode="Z" horiz-adv-x="1214" d="M51 0v227l900 1116h-687v-256h-196v429h1095v-224l-913 -1120h711v252h196v-424h-1106z" />
<glyph unicode="[" horiz-adv-x="721" d="M238 -377v2083h403v-151h-219v-1780h219v-152h-403z" />
<glyph unicode="\" horiz-adv-x="948" d="M41 1581h162l704 -1606h-162z" />
<glyph unicode="]" horiz-adv-x="721" d="M80 -225h219v1780h-219v151h403v-2083h-403v152z" />
<glyph unicode="^" horiz-adv-x="1229" d="M156 723l403 790h113l403 -790h-143l-315 626l-320 -626h-141z" />
<glyph unicode="_" horiz-adv-x="1024" d="M0 -154h1024v-102h-1024v102z" />
<glyph unicode="`" horiz-adv-x="590" d="M100 1460v17h248l184 -299h-145z" />
<glyph unicode="a" horiz-adv-x="1120" d="M70 274q0 66 19.5 117t52 88.5t76 63t91 41t97 22t94.5 6.5q72 0 121 -4.5t89 -12.5l1 85q0 55 -16 95.5t-45 67t-69.5 39.5t-90.5 13q-47 0 -90 -6.5t-80.5 -17t-69 -24t-53.5 -28.5l-61 129q37 24 81 44.5t92.5 35t99 23t99.5 8.5q90 0 162 -21.5t122 -66.5t77 -114.5 t27 -166.5l-1 -518h115v-172h-301v96q-59 -55 -130.5 -90t-162.5 -35q-76 0 -139.5 24t-109.5 65.5t-71.5 96.5t-25.5 117zM250 291q0 -41 15 -71.5t42.5 -51t65.5 -31t84 -10.5q37 0 74 9t70 24.5t61 36t47 42.5l1 234h-216q-54 0 -98.5 -12t-77 -35t-50.5 -57t-18 -78z " />
<glyph unicode="b" horiz-adv-x="1253" d="M57 1384v172h336v-606q66 51 144 81t161 30q102 0 187 -38t146.5 -107t95.5 -165.5t34 -213.5q0 -125 -38 -226.5t-105.5 -174.5t-160.5 -112.5t-204 -39.5q-77 0 -144.5 22.5t-115.5 58.5v-65h-186v1384h-150zM393 229q32 -33 94 -58.5t156 -25.5q64 0 123 24t104 72.5 t72 120.5t27 168q0 88 -25.5 156t-69 115t-101.5 71.5t-124 24.5q-73 0 -140 -30t-116 -81v-557z" />
<glyph unicode="c" horiz-adv-x="1118" d="M92 520q0 120 39 221t107 173.5t159 113.5t195 41q98 0 185.5 -34t153.5 -103h105v-172h-188q-42 75 -106.5 110t-149.5 35q-65 0 -122 -27t-99.5 -77t-67 -121.5t-24.5 -159.5q0 -87 24.5 -157t67.5 -119.5t99.5 -76t121.5 -26.5q96 0 167 46.5t113 136.5l154 -76 q-30 -64 -74 -115t-99.5 -87t-122 -55.5t-140.5 -19.5q-108 0 -199.5 40.5t-158 113.5t-103.5 174t-37 221z" />
<glyph unicode="d" horiz-adv-x="1268" d="M92 528q0 120 36 218.5t102 168t159 108t207 38.5q75 0 137 -16.5t119 -57.5v397h-141v172h327v-1384h152v-172h-338v85q-50 -51 -116 -79.5t-150 -28.5q-105 0 -195.5 36.5t-157 107t-104 173t-37.5 234.5zM285 530q0 -96 24 -169t67 -122.5t103 -74.5t131 -25 q83 0 139 24.5t103 73.5v580q-50 42 -115 61t-133 19q-66 0 -124 -24.5t-101.5 -71.5t-68.5 -115t-25 -156z" />
<glyph unicode="e" horiz-adv-x="1175" d="M92 522q0 111 31 209.5t92.5 172t152.5 116.5t212 43q117 0 195.5 -35.5t128 -94t75 -133.5t35.5 -153q5 -38 6.5 -77t1.5 -76h-746q0 -44 6.5 -80.5t18.5 -69.5q37 -100 118.5 -150.5t184.5 -50.5q81 0 157.5 22.5t160.5 70.5l75 -127q-102 -70 -205 -104t-214 -34 q-105 0 -194.5 35t-154 104t-101 172t-36.5 240zM286 639h537q-4 58 -18.5 107t-44.5 85t-77 56t-116 20q-65 0 -113.5 -18.5t-82.5 -53t-54.5 -84.5t-30.5 -112z" />
<glyph unicode="f" horiz-adv-x="745" d="M85 885v151h171v162q2 90 26 157t68 112t106 67t138 22q53 0 95 -5t75 -13.5t58.5 -18.5t45.5 -20l-57 -133q-32 17 -83.5 29t-107.5 12q-83 0 -130.5 -51.5t-47.5 -151.5v-168h240v-151h-240v-713h162v-172h-504v172h156v713h-171z" />
<glyph unicode="g" horiz-adv-x="1200" d="M92 528q0 120 36 218.5t102 168t159 108t207 38.5q78 0 140.5 -17.5t121.5 -60.5v53h186v-995q0 -246 -116.5 -372t-362.5 -126q-54 0 -113 8t-116.5 25.5t-112 44.5t-100.5 66l100 151q30 -26 68.5 -48t82.5 -37.5t91 -24.5t94 -9q77 0 133.5 16t93 56.5t54.5 109.5 t18 175v15q-51 -54 -118.5 -84t-153.5 -30q-105 0 -195.5 36.5t-157 107t-104 173t-37.5 234.5zM285 530q0 -96 24 -169t67 -122.5t103 -74.5t131 -25q46 0 84 9t69 23.5t54.5 33.5t40.5 40v567q-51 45 -117.5 65t-136.5 20q-66 0 -124 -24.5t-101.5 -71.5t-68.5 -115 t-25 -156z" />
<glyph unicode="h" horiz-adv-x="1354" d="M100 0v172h156v1212h-142v172h328v-634h6q28 28 64.5 52.5t76.5 42.5t83 28t90 10q83 0 150 -23t114 -70t72.5 -120.5t25.5 -173.5v-496h156v-172h-492v172h142v473q0 119 -60.5 180.5t-173.5 61.5q-64 0 -130 -30.5t-124 -76.5v-608h150v-172h-492z" />
<glyph unicode="i" horiz-adv-x="657" d="M92 864v172h338v-864h156v-172h-492v172h148v692h-150zM207 1403q0 26 10.5 49.5t28 41t41.5 28t51 10.5q26 0 49.5 -10.5t41 -28t28 -41t10.5 -49.5q0 -27 -10.5 -51t-28 -42.5t-41 -29t-49.5 -10.5q-27 0 -51 10.5t-41.5 29t-28 42.5t-10.5 51z" />
<glyph unicode="j" horiz-adv-x="604" d="M61 -332q89 13 129.5 84.5t40.5 188.5v923h-147v172h336v-1116q0 -89 -23 -160.5t-66.5 -122t-106.5 -78.5t-144 -30zM207 1403q0 24 9.5 45t25.5 37t37.5 25.5t46.5 9.5q24 0 45.5 -9.5t37.5 -25.5t25.5 -37t9.5 -45q0 -25 -9.5 -47t-25.5 -38.5t-37.5 -26t-45.5 -9.5 q-25 0 -46.5 9.5t-37.5 26t-25.5 38.5t-9.5 47z" />
<glyph unicode="k" horiz-adv-x="1286" d="M92 1384v172h365v-172h-2v-774h180l246 254h-62v172h393v-172h-131l-315 -325l344 -367h125v-172h-219l-424 463h-137v-291h86v-172h-443v172h170v1212h-176z" />
<glyph unicode="l" horiz-adv-x="666" d="M92 0v172h150v1212h-150v172h336v-1384h156v-172h-492z" />
<glyph unicode="m" horiz-adv-x="2050" d="M100 0v172h144v692h-144v172h330v-121h2q34 29 71.5 54.5t78.5 44.5t85.5 30t92.5 11q112 0 193 -41.5t125 -129.5q38 34 80 65.5t87.5 54.5t95.5 37t104 14q84 0 151 -23t114 -70t71.5 -120.5t24.5 -173.5v-496h144v-172h-484v172h146v473q0 119 -60 180.5t-173 61.5 q-67 0 -137 -32t-120 -81v-602h143v-172h-483v172h146v473q0 119 -60.5 180.5t-173.5 61.5q-65 0 -131 -31t-125 -77v-607h146v-172h-484z" />
<glyph unicode="n" horiz-adv-x="1366" d="M100 0v172h144v692h-144v172h330v-122h2q33 29 70.5 55t78.5 45t85.5 30t93.5 11q83 0 150 -23t114 -70t72.5 -120.5t25.5 -173.5v-496h144v-172h-484v172h146v473q0 119 -60.5 180.5t-173.5 61.5q-65 0 -131 -31t-125 -77v-607h146v-172h-484z" />
<glyph unicode="o" horiz-adv-x="1225" d="M86 518q1 123 39.5 224t107.5 173.5t164 111.5t209 39q115 0 210.5 -39t163.5 -110.5t106 -172.5t38 -224q0 -121 -38 -222.5t-106 -174.5t-163.5 -113.5t-210.5 -40.5q-117 0 -212 40t-163 112.5t-106 173.5t-39 223zM283 518q0 -89 25.5 -161t70 -122.5t103 -78 t124.5 -27.5q69 0 128.5 27t103.5 77.5t69 122.5t25 162q0 94 -25 167t-68.5 122t-103.5 74t-129 25q-66 0 -124.5 -25t-103 -74t-70 -122t-25.5 -167z" />
<glyph unicode="p" horiz-adv-x="1249" d="M59 864v172h330v-86q66 51 144 81t161 30q102 0 187 -38t146.5 -107t95.5 -165.5t34 -213.5q0 -125 -38 -228t-105.5 -176.5t-160.5 -114.5t-204 -41q-79 0 -140.5 16.5t-117.5 42.5v-335h162v-172h-492v172h142v1163h-144zM391 227q33 -34 94.5 -61t153.5 -27 q64 0 123 25t104 74.5t72 122.5t27 169q0 88 -25.5 156t-69 115t-101.5 71.5t-124 24.5q-72 0 -138.5 -29t-115.5 -80v-561z" />
<glyph unicode="q" horiz-adv-x="1206" d="M92 528q0 120 36 218.5t102 168t159 108t207 38.5q75 0 135 -16.5t117 -54.5v46h186v-1335h156v-172h-492v172h150v380q-50 -49 -115 -76.5t-147 -27.5q-105 0 -195.5 36.5t-157 107t-104 173t-37.5 234.5zM285 530q0 -96 24 -169t67 -122.5t103 -74.5t131 -25 q85 0 144 28t94 66v587q-50 41 -113.5 59t-130.5 18q-66 0 -124 -24.5t-101.5 -72t-68.5 -115.5t-25 -155z" />
<glyph unicode="r" horiz-adv-x="960" d="M100 0v172h143l1 692h-144v172h331v-143q18 32 40.5 59.5t50 48t61 32t72.5 11.5h98q46 0 92 -2v-225h-190v64q-33 0 -67.5 -12.5t-64.5 -38t-52.5 -65t-32.5 -93.5v-500h176v-172h-514z" />
<glyph unicode="s" horiz-adv-x="993" d="M82 111v172h207q0 -43 18.5 -73.5t49 -49.5t69 -28t78.5 -9q39 0 75 9.5t63.5 28t43.5 44.5t16 59q0 50 -32.5 85t-110.5 63l-198 74q-121 43 -179.5 109.5t-58.5 166.5q0 66 24.5 122t71 96.5t113.5 63.5t153 23q111 0 186 -31t135 -106h97v-172h-205q0 42 -19.5 71.5 t-50.5 48t-69 27t-74 8.5q-40 0 -73.5 -9t-57.5 -26t-37.5 -41.5t-13.5 -54.5q0 -52 31.5 -82.5t105.5 -56.5l199 -70q128 -43 187 -117t59 -177q0 -69 -27.5 -126.5t-78 -98t-121.5 -63t-158 -22.5q-121 0 -197 39t-117 103h-104z" />
<glyph unicode="t" horiz-adv-x="762" d="M51 885v151h167v248l182 86v-334h243v-151h-245l-3 -598q0 -61 14 -99t45 -52.5t70 -14.5q42 0 74 7.5t70 25.5l43 -125q-48 -25 -101 -39.5t-125 -14.5q-68 0 -118.5 16.5t-85 55.5t-51.5 104.5t-17 163.5l3 570h-165z" />
<glyph unicode="u" horiz-adv-x="1350" d="M60 864v172h334v-645q0 -119 55 -180t158 -61q61 0 128.5 22t127.5 61v631h-139v172h334v-864h115v-172h-302v96q-70 -54 -152.5 -84t-176.5 -30q-78 0 -141.5 22.5t-108 70t-68.5 120.5t-24 174v495h-140z" />
<glyph unicode="v" horiz-adv-x="1100" d="M20 864v172h358v-172h-97l256 -714l250 714h-63v172h328v-172h-89l-339 -880h-184l-338 880h-82z" />
<glyph unicode="w" horiz-adv-x="1640" d="M20 864v172h328v-172h-48l181 -661l248 833h156l237 -831l189 659h-60v172h328v-172h-89l-284 -880h-172l-235 827l-234 -827h-174l-282 880h-89z" />
<glyph unicode="x" horiz-adv-x="1090" d="M51 864v172h344v-172h-39l191 -246l193 246h-50v172h344v-172h-89l-293 -338l310 -354h76v-172h-344v172h59l-206 256l-201 -256h51v-172h-344v172h84l315 367l-296 325h-105z" />
<glyph unicode="y" horiz-adv-x="1176" d="M31 864v172h393v-172h-123l243 -661l254 661h-122v172h393v-172h-107l-461 -1163h142v-172h-418v172h126l110 285l-346 878h-84z" />
<glyph unicode="z" horiz-adv-x="924" d="M76 0v115l525 766h-331v-146h-184v301h741v-118l-524 -762h354v176h193v-332h-774z" />
<glyph unicode="{" horiz-adv-x="721" d="M133 596v127q42 0 73.5 23t52.5 60.5t31.5 85.5t10.5 98v452q0 63 18.5 112t48 83t67.5 51.5t77 17.5h137v-126h-69q-54 0 -74.5 -52.5t-20.5 -146.5v-428q0 -62 -13 -110t-35.5 -84t-53 -60t-66.5 -37v-4q36 -13 66.5 -37t53 -60t35.5 -84.5t13 -109.5v-418 q0 -94 20.5 -146.5t74.5 -52.5h69v-127h-137q-39 0 -77 17.5t-67.5 51.5t-48 83t-18.5 112v443q0 50 -10.5 97.5t-31.5 85t-52.5 60.5t-73.5 23z" />
<glyph unicode="|" horiz-adv-x="455" d="M152 -270v1996h155v-1996h-155z" />
<glyph unicode="}" horiz-adv-x="721" d="M72 -250h69q54 0 74.5 52.5t20.5 146.5v418q0 61 13 109.5t35.5 84.5t53 60t65.5 37v4q-35 13 -65.5 37t-53 60t-35.5 84t-13 110v428q0 94 -20.5 146.5t-74.5 52.5h-69v126h137q39 0 77 -17.5t67.5 -51.5t48 -83t18.5 -112v-452q0 -50 10.5 -98t31.5 -85.5t52.5 -60.5 t73.5 -23v-127q-42 0 -73.5 -23t-52.5 -60.5t-31.5 -85t-10.5 -97.5v-443q0 -63 -18.5 -112t-48 -83t-67.5 -51.5t-77 -17.5h-137v127z" />
<glyph unicode="~" horiz-adv-x="1229" d="M141 483q45 84 106 130t150 46q58 0 119.5 -22.5t119.5 -49t109 -49t89 -22.5q43 0 86.5 34.5t93.5 117.5l73 -115q-45 -84 -105.5 -130t-150.5 -46q-39 0 -79 10.5t-80.5 26.5t-79 34.5t-74 34.5t-67 26.5t-56.5 10.5q-43 0 -86.5 -34t-93.5 -117z" />
<glyph unicode="&#xa0;" horiz-adv-x="448" d="M0 0z" />
<glyph unicode="&#xa1;" horiz-adv-x="682" d="M211 -471l41 1167h178l41 -1167h-260zM211 1010q0 26 10.5 49.5t28 41t41.5 28t51 10.5q26 0 49.5 -10.5t41 -28t28 -41t10.5 -49.5q0 -27 -10.5 -51t-28 -42.5t-41 -29t-49.5 -10.5q-27 0 -51 10.5t-41.5 29t-28 42.5t-10.5 51z" />
<glyph unicode="&#xa2;" horiz-adv-x="1210" d="M111 684q0 106 31 197t85 161.5t128 117.5t161 64v355h197v-356q68 -14 128 -45t108 -82h106v-172h-183l-4 -2q-1 0 -1 2h-1v1q-43 74 -107 109t-149 35q-65 0 -122 -27t-99.5 -77t-67 -121.5t-24.5 -159.5q0 -87 24.5 -157t67.5 -119.5t99.5 -76t121.5 -26.5 q96 0 167.5 46.5t113.5 135.5l153 -75q-49 -105 -134 -174.5t-197 -92.5v-331h-197v329q-90 16 -164.5 62t-128 116.5t-83 162.5t-29.5 200z" />
<glyph unicode="&#xa3;" horiz-adv-x="932" d="M33 662v145h195q-26 69 -45 142t-19 155q0 78 27 143t76 112t117 73t151 26q74 0 136 -26.5t106 -73.5t66.5 -112t18.5 -142l-166 -10q-1 38 -11.5 74t-30.5 64t-49.5 45t-67.5 17q-43 0 -76 -12.5t-55.5 -34t-35 -50.5t-14.5 -62q-2 -25 0 -48.5t7 -49t14 -55.5t20 -67 q7 -27 15 -54l16 -54h279v-145h-234q14 -43 24.5 -81.5t18.5 -70.5q9 -38 4.5 -83t-22 -91t-48.5 -88.5t-76 -75.5h486v-168h-799v168h110q61 35 98 83.5t52 106t9.5 123t-29.5 133.5l-16 44h-252z" />
<glyph unicode="&#xa4;" horiz-adv-x="1128" d="M55 281l164 190q-46 58 -70 126.5t-24 145.5q0 79 25.5 150t70.5 128l-147 177l145 123l149 -179q46 24 97.5 37t107.5 13q55 0 106 -13t97 -36l137 164l160 -115l-145 -174q45 -57 69.5 -127t24.5 -148q0 -77 -24 -146t-68 -126l147 -176l-151 -119l-143 171 q-48 -25 -100.5 -38.5t-109.5 -13.5t-108.5 13t-98.5 37l-145 -175zM295 748q0 -59 22 -110t60 -89t89 -60t109 -22t109.5 22t89.5 60t60 89t22 110q0 58 -22 109t-60 89t-89.5 60t-109.5 22t-109 -22t-89 -60t-60 -89t-22 -109z" />
<glyph unicode="&#xa5;" horiz-adv-x="1354" d="M51 1344v172h492v-172h-145l286 -488l305 488h-157v172h492v-172h-129l-328 -496h184v-141h-283v-148h283v-141h-283v-246h156v-172h-492v172h139v246h-270v141h270v148h-270v141h178l-311 496h-117z" />
<glyph unicode="&#xa6;" horiz-adv-x="512" d="M152 -268v749h155v-749h-155zM152 979v750h155v-750h-155z" />
<glyph unicode="&#xa7;" horiz-adv-x="1094" d="M74 -25h237v-24q0 -55 18 -99t51.5 -75.5t81 -48.5t105.5 -17q104 0 162.5 54.5t58.5 150.5q0 53 -18.5 91t-47 64t-64.5 42.5t-70 27.5q-46 14 -91 28t-91 28q-64 19 -117.5 49t-92 73.5t-60 102t-21.5 135.5q0 103 48.5 187t141.5 136q-66 48 -107.5 125t-41.5 185 q0 78 27.5 143.5t81.5 113t133 74.5t182 27q82 0 149.5 -17.5t119.5 -49t87 -74.5t52 -94h65v-166h-232v56q-8 40 -32 71t-57.5 52.5t-74 32.5t-82.5 11q-57 0 -98.5 -12.5t-68.5 -35t-40.5 -53t-13.5 -67.5q0 -46 17.5 -79.5t45 -58t62 -41t68.5 -28.5q77 -27 144 -51.5 t122.5 -50.5t99 -56.5t73.5 -69.5t45.5 -88.5t15.5 -115.5q0 -106 -52.5 -191.5t-143.5 -139.5q70 -50 107 -123.5t37 -180.5q0 -86 -32.5 -159t-90.5 -126.5t-138 -83.5t-175 -30q-98 0 -169 23t-120 62t-79.5 90t-46.5 106h-70v165zM313 567q0 -54 20.5 -87t52.5 -53.5 t109 -44.5l104 -38q111 4 176 59.5t65 149.5q0 51 -22 86.5t-56.5 60t-76.5 40.5t-83 27q-21 -1 -27 -1q-65 0 -114 -15.5t-82 -42.5t-49.5 -63t-16.5 -78z" />
<glyph unicode="&#xa8;" horiz-adv-x="612" d="M39 1360q0 26 10.5 49.5t28 41t41 28t49.5 10.5q25 0 48 -10.5t40 -28t27 -41t10 -49.5q0 -27 -10 -51t-27 -42.5t-40 -29t-48 -10.5q-26 0 -49.5 10.5t-41 29t-28 42.5t-10.5 51zM498 1360q0 26 10.5 49.5t28 41t41 28t49.5 10.5q25 0 47.5 -10.5t40 -28t27.5 -41 t10 -49.5q0 -27 -10 -51t-27.5 -42.5t-40 -29t-47.5 -10.5q-26 0 -49.5 10.5t-41 29t-28 42.5t-10.5 51z" />
<glyph unicode="&#xa9;" horiz-adv-x="1919" d="M102 831q0 118 30.5 227.5t86 204.5t133.5 173t173 133.5t204.5 86t228.5 30.5q118 0 228 -30.5t205.5 -86t174 -133.5t134.5 -173t86.5 -204.5t30.5 -227.5q0 -119 -30.5 -228.5t-86.5 -204.5t-134.5 -173t-174 -133.5t-205.5 -86t-228 -30.5q-119 0 -228.5 30.5 t-204.5 86t-173 133.5t-133.5 173t-86 204.5t-30.5 228.5zM283 831q0 -142 52.5 -265.5t144 -215t214.5 -144t264 -52.5t263.5 52.5t215 144t145 215t52.5 265.5q0 140 -52.5 269.5t-145 215.5t-215 138.5t-263.5 52.5t-264 -52.5t-214.5 -138.5t-144 -215.5t-52.5 -269.5z M477 834q0 104 39 195.5t107 160t159.5 108t196.5 39.5q58 0 109.5 -12.5t96 -33t81 -47t65.5 -54.5l-141 -131q-48 46 -100.5 67t-110.5 21q-64 0 -120 -24.5t-97.5 -67.5t-65.5 -100t-24 -121t24 -120t65.5 -98t97.5 -66t120 -24q56 0 108.5 22.5t83.5 57.5l134 -129 q-23 -30 -59 -56.5t-79 -46t-91.5 -31t-96.5 -11.5q-105 0 -196.5 39t-159.5 107t-107 159.5t-39 196.5z" />
<glyph unicode="&#xaa;" horiz-adv-x="838" d="M102 1072q0 58 27 99.5t70 67.5t96.5 38t105.5 12q47 0 83.5 -4t66.5 -10v49q0 68 -42.5 98.5t-111.5 30.5q-65 0 -117 -13.5t-87 -33.5l-50 96q57 35 128.5 56.5t144.5 21.5q64 0 116 -14.5t88.5 -44.5t56 -77.5t19.5 -113.5v-313h82v-131h-227v56q-42 -34 -90 -54.5 t-111 -20.5q-55 0 -100.5 16t-78.5 44t-51 65.5t-18 79.5zM244 1084q0 -49 35.5 -74.5t95.5 -25.5q54 0 101.5 20t74.5 47v136h-156q-32 0 -60 -7t-48 -20t-31.5 -32t-11.5 -44z" />
<glyph unicode="&#xab;" horiz-adv-x="1040" d="M102 565l220 393h192l-229 -393l229 -393h-192zM526 565l219 393h193l-229 -393l229 -393h-193z" />
<glyph unicode="&#xac;" horiz-adv-x="1214" d="M49 815v184h1094v-567h-182v383h-912z" />
<glyph unicode="&#xad;" horiz-adv-x="737" d="M94 496v172h551v-172h-551z" />
<glyph unicode="&#xae;" horiz-adv-x="1919" d="M102 831q0 118 30.5 227.5t86 204.5t133.5 173t173 133.5t204.5 86t228.5 30.5q118 0 228 -30.5t205.5 -86t174 -133.5t134.5 -173t86.5 -204.5t30.5 -227.5q0 -119 -30.5 -228.5t-86.5 -204.5t-134.5 -173t-174 -133.5t-205.5 -86t-228 -30.5q-119 0 -228.5 30.5 t-204.5 86t-173 133.5t-133.5 173t-86 204.5t-30.5 228.5zM283 831q0 -142 52.5 -265.5t144 -215t214.5 -144t264 -52.5t263.5 52.5t215 144t145 215t52.5 265.5q0 94 -52.5 246.5t-145 238.5t-215 138.5t-263.5 52.5t-264 -52.5t-214.5 -138.5t-144 -215.5t-52.5 -269.5z M551 1188v158h483q73 0 132 -21t100 -58t63.5 -87.5t22.5 -108.5q0 -49 -10 -87t-30.5 -67.5t-50.5 -51.5t-69 -39q31 -17 55.5 -52.5t36.5 -87.5l41 -168h82l2 -158h-256l-51 254q-14 84 -64 121t-129 37h-67v-254h92v-158h-379v158h98v670h-102zM842 928h143 q74 0 118 30.5t44 98.5q0 62 -41.5 96.5t-128.5 34.5h-135v-260z" />
<glyph unicode="&#xaf;" horiz-adv-x="797" d="M39 1229v117h758v-117h-758z" />
<glyph unicode="&#x2c9;" horiz-adv-x="797" d="M39 1229v117h758v-117h-758z" />
<glyph unicode="&#xb0;" horiz-adv-x="682" d="M102 1497q0 49 19 92.5t51 76.5t75.5 52t92.5 19t92.5 -19t76.5 -52t52 -76.5t19 -92.5t-19 -92t-52 -75.5t-76.5 -51t-92.5 -18.5t-92.5 18.5t-75.5 51t-51 75.5t-19 92zM205 1497q0 -28 10.5 -52.5t29 -43t43 -29t52.5 -10.5t52.5 10.5t43.5 29t30 43t11 52.5t-11 52.5 t-30 43.5t-43.5 30t-52.5 11t-52.5 -11t-43 -30t-29 -43.5t-10.5 -52.5z" />
<glyph unicode="&#xb1;" horiz-adv-x="1229" d="M102 0v162h1024v-162h-1024zM102 711v182h420v420h183v-420h421v-182h-421v-402h-183v402h-420z" />
<glyph unicode="&#xb2;" horiz-adv-x="700" d="M53 1350q0 52 19.5 94.5t53.5 72.5t78.5 46t94.5 16q52 0 97 -15t78 -43.5t52 -68.5t19 -90q0 -38 -19 -80t-61 -84l-235 -235h313v-121h-488v102l275 277q31 32 56.5 67.5t25.5 73.5q0 19 -8 36.5t-23 30.5t-36.5 21t-47.5 8q-53 0 -85 -30t-34 -78h-125z" />
<glyph unicode="&#xb3;" horiz-adv-x="631" d="M51 1051h133q8 -48 41.5 -73.5t87.5 -25.5q25 0 48 7.5t40 21.5t27 32.5t10 41.5q0 51 -36 78.5t-93 27.5h-57v107h55q57 0 89 27t32 69q0 16 -8 33.5t-23.5 31.5t-38 23.5t-51.5 9.5q-16 0 -36 -5.5t-37 -17.5t-29 -30.5t-12 -44.5h-132q3 44 22 83.5t51 69t76 47 t95 17.5q56 0 103 -17.5t80.5 -46.5t52 -67t18.5 -80q0 -48 -23 -87.5t-69 -64.5q42 -19 72 -60.5t30 -100.5q0 -48 -20 -89.5t-55.5 -72t-83.5 -47.5t-103 -17q-48 0 -94 14.5t-82 43t-58 69t-22 93.5z" />
<glyph unicode="&#xb4;" horiz-adv-x="645" d="M84 1178l213 299h240v-17l-299 -282h-154z" />
<glyph unicode="&#xb5;" horiz-adv-x="1198" d="M158 -471v1507h196v-645q0 -119 55 -180t158 -61q61 0 128.5 22t127.5 61v803h195v-864h115v-172h-302v96q-70 -54 -152.5 -84t-176.5 -30q-85 0 -148 25v-478h-196z" />
<glyph unicode="&#x3bc;" horiz-adv-x="1198" d="M158 -471v1507h196v-645q0 -119 55 -180t158 -61q61 0 128.5 22t127.5 61v803h195v-864h115v-172h-302v96q-70 -54 -152.5 -84t-176.5 -30q-85 0 -148 25v-478h-196z" />
<glyph unicode="&#xb6;" horiz-adv-x="1274" d="M41 1104q0 102 35 179t100 129t156.5 78t204.5 26h598v-162h-80v-1723h-181v1723h-229v-1723h-180v1070q-93 6 -171 38.5t-134.5 85t-87.5 124t-31 155.5z" />
<glyph unicode="&#xb7;" horiz-adv-x="612" d="M174 666q0 26 10.5 49.5t28 41t41.5 28t51 10.5q26 0 49.5 -10.5t41 -28t28 -41t10.5 -49.5q0 -27 -10.5 -51.5t-28 -42.5t-41 -29t-49.5 -11q-27 0 -51 11t-41.5 29t-28 42.5t-10.5 51.5z" />
<glyph unicode="&#x2219;" horiz-adv-x="612" d="M174 666q0 26 10.5 49.5t28 41t41.5 28t51 10.5q26 0 49.5 -10.5t41 -28t28 -41t10.5 -49.5q0 -27 -10.5 -51.5t-28 -42.5t-41 -29t-49.5 -11q-27 0 -51 11t-41.5 29t-28 42.5t-10.5 51.5z" />
<glyph unicode="&#xb8;" horiz-adv-x="940" d="M182 -303q55 1 99.5 19.5t78 48.5t55 70.5t29.5 86.5l150 -45q-18 -73 -56 -130.5t-90.5 -97t-117.5 -60.5t-137 -21z" />
<glyph unicode="&#xb9;" horiz-adv-x="500" d="M33 1321v139l217 119h59v-627h80v-112h-297v112h82v445z" />
<glyph unicode="&#xba;" horiz-adv-x="934" d="M102 1217q0 78 27 144.5t75 115t115 76t148 27.5t148 -26.5t115 -74.5t74.5 -114t26.5 -145q0 -80 -26 -146.5t-74 -114.5t-115 -75t-149 -27t-149.5 26.5t-115.5 74.5t-74 114t-26 145zM254 1217q0 -52 17 -94t46 -71.5t67.5 -45.5t82.5 -16q45 0 84 16t67.5 45.5 t45 71.5t16.5 94q0 55 -16.5 98t-45 71.5t-67.5 43.5t-84 15q-44 0 -82.5 -15t-67.5 -43.5t-46 -71.5t-17 -98z" />
<glyph unicode="&#xbb;" horiz-adv-x="1040" d="M102 172l230 393l-230 393h193l219 -393l-219 -393h-193zM526 172l230 393l-230 393h193l219 -393l-219 -393h-193z" />
<glyph unicode="&#xbc;" horiz-adv-x="1700" d="M0 -61l1276 1638h199l-1276 -1638h-199zM19 1239v162l217 121h70v-615h81v-129h-323v129h84v404zM1080 303l280 457h148l-273 -455h183v164h135v-164h112v-110h-112v-195h-135v195h-336z" />
<glyph unicode="&#xbd;" horiz-adv-x="1700" d="M0 -61l1276 1638h199l-1276 -1638h-199zM31 1239v162l217 121h70v-615h82v-129h-324v129h84v404zM1037 512q0 56 20 100.5t54.5 75.5t81.5 47.5t100 16.5q51 0 97 -14.5t80.5 -43t54.5 -70t20 -94.5q0 -42 -19.5 -79t-54.5 -74l-229 -236h301v-141h-504v121l274 276 q34 31 55 64t21 65q0 35 -27 60.5t-73 25.5q-50 0 -78.5 -28.5t-28.5 -71.5h-145z" />
<glyph unicode="&#xbe;" horiz-adv-x="1700" d="M0 1001h151q7 -45 37.5 -70.5t81.5 -25.5q24 0 44.5 8t36 22.5t24 33t8.5 39.5q0 43 -31.5 70.5t-85.5 27.5h-65v113h67q50 0 77.5 25.5t27.5 64.5q0 15 -7 30.5t-20.5 29t-34 22t-47.5 8.5q-15 0 -33 -5t-33.5 -16.5t-25.5 -29t-10 -41.5h-150q1 47 20 88.5t52 72 t79 48.5t101 18q56 0 104 -17.5t82.5 -47.5t54 -69.5t19.5 -82.5q0 -49 -21.5 -88.5t-62.5 -63.5q19 -9 36 -24.5t30 -36.5t20.5 -46t7.5 -52q0 -48 -20.5 -91t-56.5 -75.5t-85 -51t-106 -18.5q-54 0 -102 16t-84.5 46t-58 72.5t-21.5 96.5zM61 -61l1276 1638h199 l-1276 -1638h-199zM975 303l280 457h148l-273 -455h183v164h135v-164h112v-110h-112v-195h-135v195h-336z" />
<glyph unicode="&#xbf;" horiz-adv-x="1030" d="M8 -55q0 102 52.5 188.5t154.5 157.5q47 33 82 61t60.5 57t41.5 62t25.5 76.5t13.5 100t4 132.5h181q0 -104 -7.5 -181.5t-28.5 -138t-58.5 -110.5t-96.5 -100q-53 -45 -96.5 -78t-74 -64.5t-47.5 -68t-17 -88.5q0 -45 18 -87t48.5 -74.5t72 -52.5t88.5 -20q81 0 135 28 t87 67.5t47 83t14 75.5l176 -12q-6 -84 -41.5 -159t-95.5 -131.5t-142 -90t-180 -33.5q-101 0 -178.5 33t-130 88t-80 127.5t-27.5 151.5zM406 1022q0 26 10.5 49.5t28 41t41.5 28t51 10.5q26 0 49.5 -10.5t41 -28t28 -41t10.5 -49.5q0 -27 -10.5 -51t-28 -42.5t-41 -29 t-49.5 -10.5q-27 0 -51 10.5t-41.5 29t-28 42.5t-10.5 51z" />
<glyph unicode="&#xc0;" d="M10 0v172h132l472 1344h295l471 -1344h152v-172h-492v172h126l-120 344h-583l-117 -344h156v-172h-492zM520 682h468l-236 678zM471 1940v17h248l184 -299h-145z" />
<glyph unicode="&#xc1;" d="M10 0v172h132l472 1344h295l471 -1344h152v-172h-492v172h126l-120 344h-583l-117 -344h156v-172h-492zM520 682h468l-236 678zM545 1658l213 299h240v-17l-299 -282h-154z" />
<glyph unicode="&#xc2;" d="M10 0v172h132l472 1344h295l471 -1344h152v-172h-492v172h126l-120 344h-583l-117 -344h156v-172h-492zM520 682h468l-236 678zM489 1646l250 313h63l252 -313h-149l-133 155l-135 -155h-148z" />
<glyph unicode="&#xc3;" d="M10 0v172h132l472 1344h295l471 -1344h152v-172h-492v172h126l-120 344h-583l-117 -344h156v-172h-492zM520 682h468l-236 678zM411 1731q13 47 37 78.5t54 50.5t64.5 27t69.5 8q50 0 86.5 -16.5t68 -36t62.5 -35.5t70 -16q28 0 54.5 19t35.5 61l119 -35 q-20 -85 -78 -131.5t-139 -46.5q-56 0 -95 15.5t-71 33.5t-60 33.5t-61 15.5q-15 0 -30.5 -2t-30.5 -9.5t-27.5 -23t-19.5 -43.5z" />
<glyph unicode="&#xc4;" d="M10 0v172h132l472 1344h295l471 -1344h152v-172h-492v172h126l-120 344h-583l-117 -344h156v-172h-492zM520 682h468l-236 678zM415 1840q0 26 10.5 49.5t28 41t41 28t49.5 10.5q25 0 48 -10.5t40 -28t27 -41t10 -49.5q0 -27 -10 -51t-27 -42.5t-40 -29t-48 -10.5 q-26 0 -49.5 10.5t-41 29t-28 42.5t-10.5 51zM874 1840q0 26 10.5 49.5t28 41t41 28t49.5 10.5q25 0 47.5 -10.5t40 -28t27.5 -41t10 -49.5q0 -27 -10 -51t-27.5 -42.5t-40 -29t-47.5 -10.5q-26 0 -49.5 10.5t-41 29t-28 42.5t-10.5 51z" />
<glyph unicode="&#xc5;" d="M10 0v172h132l472 1344h295l471 -1344h152v-172h-492v172h126l-120 344h-583l-117 -344h156v-172h-492zM520 682h468l-236 678zM515 1692q0 52 20.5 99t55.5 81.5t81.5 55t98.5 20.5t99 -20.5t81.5 -55t55 -81.5t20.5 -99t-20.5 -98.5t-55 -81.5t-81.5 -55.5t-99 -20.5 t-98.5 20.5t-81.5 55.5t-55.5 81.5t-20.5 98.5zM667 1692q0 -21 8.5 -39.5t23 -33t33 -23t39.5 -8.5t40 8.5t33.5 23t23 33t8.5 39.5t-8.5 40t-23 33.5t-33.5 23t-40 8.5t-39.5 -8.5t-33 -23t-23 -33.5t-8.5 -40z" />
<glyph unicode="&#xc6;" horiz-adv-x="1915" d="M-2 0v172h106l816 1344h938v-429h-205v256h-465v-481h379v-172h-379v-518h465v256h205v-428h-992v172h125v254h-517l-148 -254h163v-172h-491zM575 598h416v714z" />
<glyph unicode="&#xc7;" horiz-adv-x="1509" d="M72 760q0 162 53.5 306t150 250.5t230 168t289.5 61.5q139 0 240 -39.5t171.5 -94t121.5 -118.5h106v-178h-215q-67 114 -177.5 179t-246.5 65q-116 0 -212 -49t-164.5 -131.5t-106.5 -191t-38 -228.5q0 -142 42 -251.5t109.5 -182t160.5 -121t209 -48.5q158 0 275 76.5 t200 251.5l176 -83q-38 -108 -129 -208.5t-224.5 -162t-295.5 -61.5q-155 0 -285 58.5t-231.5 166.5t-155 256t-53.5 309zM544 -303q55 1 99.5 19.5t78 48.5t55 70.5t29.5 86.5l150 -45q-18 -73 -56 -130.5t-90.5 -97t-117.5 -60.5t-137 -21z" />
<glyph unicode="&#xc8;" horiz-adv-x="1286" d="M143 0v172h144v1171h-144v173h1086v-429h-205v256h-541v-485h455v-172h-455v-514h541v256h205v-428h-1086zM340 1940v17h248l184 -299h-145z" />
<glyph unicode="&#xc9;" horiz-adv-x="1286" d="M143 0v172h144v1171h-144v173h1086v-429h-205v256h-541v-485h455v-172h-455v-514h541v256h205v-428h-1086zM460 1658l213 299h240v-17l-299 -282h-154z" />
<glyph unicode="&#xca;" horiz-adv-x="1286" d="M143 0v172h144v1171h-144v173h1086v-429h-205v256h-541v-485h455v-172h-455v-514h541v256h205v-428h-1086zM417 1656l250 313h63l252 -313h-149l-133 155l-135 -155h-148z" />
<glyph unicode="&#xcb;" horiz-adv-x="1286" d="M143 0v172h144v1171h-144v173h1086v-429h-205v256h-541v-485h455v-172h-455v-514h541v256h205v-428h-1086zM289 1840q0 26 10.5 49.5t28 41t41 28t49.5 10.5q25 0 48 -10.5t40 -28t27 -41t10 -49.5q0 -27 -10 -51t-27 -42.5t-40 -29t-48 -10.5q-26 0 -49.5 10.5t-41 29 t-28 42.5t-10.5 51zM748 1840q0 26 10.5 49.5t28 41t41 28t49.5 10.5q25 0 47.5 -10.5t40 -28t27.5 -41t10 -49.5q0 -27 -10 -51t-27.5 -42.5t-40 -29t-47.5 -10.5q-26 0 -49.5 10.5t-41 29t-28 42.5t-10.5 51z" />
<glyph unicode="&#xcc;" horiz-adv-x="770" d="M143 0v172h144v1171h-144v173h484v-173h-144v-1171h144v-172h-484zM86 1940v17h248l184 -299h-145z" />
<glyph unicode="&#xcd;" horiz-adv-x="770" d="M143 0v172h144v1171h-144v173h484v-173h-144v-1171h144v-172h-484zM159 1658l213 299h240v-17l-299 -282h-154z" />
<glyph unicode="&#xce;" horiz-adv-x="770" d="M143 0v172h144v1171h-144v173h484v-173h-144v-1171h144v-172h-484zM104 1656l250 313h63l252 -313h-149l-133 155l-135 -155h-148z" />
<glyph unicode="&#xcf;" horiz-adv-x="770" d="M143 0v172h144v1171h-144v173h484v-173h-144v-1171h144v-172h-484zM30 1840q0 26 10.5 49.5t28 41t41 28t49.5 10.5q25 0 48 -10.5t40 -28t27 -41t10 -49.5q0 -27 -10 -51t-27 -42.5t-40 -29t-48 -10.5q-26 0 -49.5 10.5t-41 29t-28 42.5t-10.5 51zM489 1840 q0 26 10.5 49.5t28 41t41 28t49.5 10.5q25 0 47.5 -10.5t40 -28t27.5 -41t10 -49.5q0 -27 -10 -51t-27.5 -42.5t-40 -29t-47.5 -10.5q-26 0 -49.5 10.5t-41 29t-28 42.5t-10.5 51z" />
<glyph unicode="&#xd0;" horiz-adv-x="1516" d="M127 676v172h168v495h-156v173h576q104 0 198 -27t175 -76t147 -117.5t112.5 -152.5t71.5 -180.5t25 -200.5q0 -106 -25 -203t-71.5 -182t-112.5 -154.5t-147 -119t-175 -76.5t-198 -27h-576v172h156v504h-168zM492 172h235q105 0 197.5 46t161.5 125.5t109 187t40 231.5 q0 122 -40 228t-109 184.5t-161.5 123.5t-197.5 45h-235v-495h186v-172h-186v-504z" />
<glyph unicode="&#xd1;" horiz-adv-x="1624" d="M143 1343v175h408l692 -1245l8 48v1022h-170v173h492v-173h-129v-1343h-256l-705 1257v-1085h156v-172h-492v172h140v1171h-144zM498 1731q13 47 37 78.5t54 50.5t64.5 27t69.5 8q50 0 86.5 -16.5t68 -36t62.5 -35.5t70 -16q28 0 54.5 19t35.5 61l119 -35 q-20 -85 -78 -131.5t-139 -46.5q-56 0 -95 15.5t-71 33.5t-60 33.5t-61 15.5q-15 0 -30.5 -2t-30.5 -9.5t-27.5 -23t-19.5 -43.5z" />
<glyph unicode="&#xd2;" horiz-adv-x="1597" d="M72 758q0 164 53.5 308t150 250.5t230 168t293.5 61.5q161 0 295 -61.5t230 -168t149 -250.5t53 -308t-53.5 -307.5t-150 -250.5t-230 -168.5t-293.5 -61.5q-157 0 -287 58.5t-232 166.5t-155 256t-53 307zM276 758q0 -140 41 -249.5t108.5 -182t161 -121.5t212.5 -49 t215.5 49t164.5 131.5t105 191.5t37 230q0 124 -40.5 239.5t-113 195.5t-168.5 123.5t-200 43.5q-119 0 -216 -49t-165 -131.5t-105 -192t-37 -229.5zM499 1940v17h248l184 -299h-145z" />
<glyph unicode="&#xd3;" horiz-adv-x="1597" d="M72 758q0 164 53.5 308t150 250.5t230 168t293.5 61.5q161 0 295 -61.5t230 -168t149 -250.5t53 -308t-53.5 -307.5t-150 -250.5t-230 -168.5t-293.5 -61.5q-157 0 -287 58.5t-232 166.5t-155 256t-53 307zM276 758q0 -140 41 -249.5t108.5 -182t161 -121.5t212.5 -49 t215.5 49t164.5 131.5t105 191.5t37 230q0 124 -40.5 239.5t-113 195.5t-168.5 123.5t-200 43.5q-119 0 -216 -49t-165 -131.5t-105 -192t-37 -229.5zM573 1658l213 299h240v-17l-299 -282h-154z" />
<glyph unicode="&#xd4;" horiz-adv-x="1597" d="M72 758q0 164 53.5 308t150 250.5t230 168t293.5 61.5q161 0 295 -61.5t230 -168t149 -250.5t53 -308t-53.5 -307.5t-150 -250.5t-230 -168.5t-293.5 -61.5q-157 0 -287 58.5t-232 166.5t-155 256t-53 307zM276 758q0 -140 41 -249.5t108.5 -182t161 -121.5t212.5 -49 t215.5 49t164.5 131.5t105 191.5t37 230q0 124 -40.5 239.5t-113 195.5t-168.5 123.5t-200 43.5q-119 0 -216 -49t-165 -131.5t-105 -192t-37 -229.5zM517 1656l250 313h63l252 -313h-149l-133 155l-135 -155h-148z" />
<glyph unicode="&#xd5;" horiz-adv-x="1597" d="M72 758q0 164 53.5 308t150 250.5t230 168t293.5 61.5q161 0 295 -61.5t230 -168t149 -250.5t53 -308t-53.5 -307.5t-150 -250.5t-230 -168.5t-293.5 -61.5q-157 0 -287 58.5t-232 166.5t-155 256t-53 307zM276 758q0 -140 41 -249.5t108.5 -182t161 -121.5t212.5 -49 t215.5 49t164.5 131.5t105 191.5t37 230q0 124 -40.5 239.5t-113 195.5t-168.5 123.5t-200 43.5q-119 0 -216 -49t-165 -131.5t-105 -192t-37 -229.5zM439 1731q13 47 37 78.5t54 50.5t64.5 27t69.5 8q50 0 86.5 -16.5t68 -36t62.5 -35.5t70 -16q28 0 54.5 19t35.5 61 l119 -35q-20 -85 -78 -131.5t-139 -46.5q-56 0 -95 15.5t-71 33.5t-60 33.5t-61 15.5q-15 0 -30.5 -2t-30.5 -9.5t-27.5 -23t-19.5 -43.5z" />
<glyph unicode="&#xd6;" horiz-adv-x="1597" d="M72 758q0 164 53.5 308t150 250.5t230 168t293.5 61.5q161 0 295 -61.5t230 -168t149 -250.5t53 -308t-53.5 -307.5t-150 -250.5t-230 -168.5t-293.5 -61.5q-157 0 -287 58.5t-232 166.5t-155 256t-53 307zM276 758q0 -140 41 -249.5t108.5 -182t161 -121.5t212.5 -49 t215.5 49t164.5 131.5t105 191.5t37 230q0 124 -40.5 239.5t-113 195.5t-168.5 123.5t-200 43.5q-119 0 -216 -49t-165 -131.5t-105 -192t-37 -229.5zM443 1840q0 26 10.5 49.5t28 41t41 28t49.5 10.5q25 0 48 -10.5t40 -28t27 -41t10 -49.5q0 -27 -10 -51t-27 -42.5 t-40 -29t-48 -10.5q-26 0 -49.5 10.5t-41 29t-28 42.5t-10.5 51zM902 1840q0 26 10.5 49.5t28 41t41 28t49.5 10.5q25 0 47.5 -10.5t40 -28t27.5 -41t10 -49.5q0 -27 -10 -51t-27.5 -42.5t-40 -29t-47.5 -10.5q-26 0 -49.5 10.5t-41 29t-28 42.5t-10.5 51z" />
<glyph unicode="&#xd7;" horiz-adv-x="1303" d="M133 207l392 469l-373 448l145 123l353 -422l341 408l160 -115l-373 -447l377 -450l-151 -119l-350 420l-355 -426z" />
<glyph unicode="&#xd8;" horiz-adv-x="1593" d="M67 -34l196 252q-90 106 -138.5 244t-48.5 296q0 109 24.5 210t69.5 189t109.5 159.5t145.5 122.5t176 79t202 28q115 0 215 -32t185 -89l140 179h199l-220 -282q99 -108 153.5 -252t54.5 -312q0 -109 -24.5 -210t-69.5 -188.5t-109.5 -159.5t-145.5 -123.5t-176.5 -79.5 t-201.5 -28q-124 0 -231 36.5t-195 103.5l-111 -143h-199zM281 758q0 -106 28 -202t82 -175l692 890q-59 42 -129 65.5t-151 23.5q-119 0 -215.5 -49t-164.5 -131.5t-105 -192t-37 -229.5zM498 264q62 -51 138.5 -78.5t166.5 -27.5q119 0 215 48.5t164 131t104.5 191 t36.5 229.5q0 113 -33 216.5t-94 184.5z" />
<glyph unicode="&#xd9;" horiz-adv-x="1550" d="M113 1343v173h491v-173h-155v-706q0 -127 28.5 -216.5t79 -146t120 -82.5t152.5 -26q86 0 158 23t123.5 77.5t80 145t28.5 225.5v706h-164v173h491v-173h-135v-684q0 -164 -45.5 -291t-124.5 -213t-186 -130.5t-230 -44.5q-120 0 -224.5 44t-182 129t-122 207.5 t-44.5 280.5v702h-139zM529 1940v17h248l184 -299h-145z" />
<glyph unicode="&#xda;" horiz-adv-x="1550" d="M113 1343v173h491v-173h-155v-706q0 -127 28.5 -216.5t79 -146t120 -82.5t152.5 -26q86 0 158 23t123.5 77.5t80 145t28.5 225.5v706h-164v173h491v-173h-135v-684q0 -164 -45.5 -291t-124.5 -213t-186 -130.5t-230 -44.5q-120 0 -224.5 44t-182 129t-122 207.5 t-44.5 280.5v702h-139zM603 1658l213 299h240v-17l-299 -282h-154z" />
<glyph unicode="&#xdb;" horiz-adv-x="1550" d="M113 1343v173h491v-173h-155v-706q0 -127 28.5 -216.5t79 -146t120 -82.5t152.5 -26q86 0 158 23t123.5 77.5t80 145t28.5 225.5v706h-164v173h491v-173h-135v-684q0 -164 -45.5 -291t-124.5 -213t-186 -130.5t-230 -44.5q-120 0 -224.5 44t-182 129t-122 207.5 t-44.5 280.5v702h-139zM547 1656l250 313h63l252 -313h-149l-133 155l-135 -155h-148z" />
<glyph unicode="&#xdc;" horiz-adv-x="1550" d="M113 1343v173h491v-173h-155v-706q0 -127 28.5 -216.5t79 -146t120 -82.5t152.5 -26q86 0 158 23t123.5 77.5t80 145t28.5 225.5v706h-164v173h491v-173h-135v-684q0 -164 -45.5 -291t-124.5 -213t-186 -130.5t-230 -44.5q-120 0 -224.5 44t-182 129t-122 207.5 t-44.5 280.5v702h-139zM473 1840q0 26 10.5 49.5t28 41t41 28t49.5 10.5q25 0 48 -10.5t40 -28t27 -41t10 -49.5q0 -27 -10 -51t-27 -42.5t-40 -29t-48 -10.5q-26 0 -49.5 10.5t-41 29t-28 42.5t-10.5 51zM932 1840q0 26 10.5 49.5t28 41t41 28t49.5 10.5q25 0 47.5 -10.5 t40 -28t27.5 -41t10 -49.5q0 -27 -10 -51t-27.5 -42.5t-40 -29t-47.5 -10.5q-26 0 -49.5 10.5t-41 29t-28 42.5t-10.5 51z" />
<glyph unicode="&#xdd;" horiz-adv-x="1354" d="M51 1343v173h492v-173h-144l285 -487l305 487h-158v173h492v-173h-129l-426 -646v-525h156v-172h-492v172h139v530l-402 641h-118zM461 1658l213 299h240v-17l-299 -282h-154z" />
<glyph unicode="&#xde;" horiz-adv-x="1323" d="M104 0v172h140v1171h-138v173h492v-173h-158v-134l328 -1q101 0 186.5 -26t148 -78t97.5 -128.5t35 -176.5q0 -83 -34 -156.5t-95.5 -128.5t-148.5 -87t-193 -32h-324v-223h156v-172h-492zM440 559h328q57 0 104.5 15.5t82 45.5t54 75t19.5 104q0 92 -37.5 141t-93 72.5 t-154.5 23.5h-303v-477z" />
<glyph unicode="&#xdf;" horiz-adv-x="1247" d="M16 0v172h185v987q0 70 27.5 141t79.5 128t128 92.5t176 35.5q93 0 173 -32t138.5 -88.5t92 -133t33.5 -160.5q0 -46 -9 -84.5t-24 -71t-34 -58t-39 -45.5q51 -33 92.5 -77t70.5 -92.5t45.5 -110t16.5 -129.5q0 -101 -39.5 -192.5t-108 -157.5t-160 -102t-194.5 -36 q-39 0 -78 6v188q20 -5 39 -7.5t39 -2.5q65 0 121.5 24.5t98.5 67.5t66 100t24 112q0 65 -25 122.5t-67 95t-98 62t-118 24.5h-80v186h78q64 3 93.5 20t51.5 41t34 53.5t12 59.5q0 50 -18 94t-50.5 75t-78 47t-100.5 16q-48 0 -88 -17.5t-67.5 -48.5t-42.5 -74t-15 -94 v-1136h-381z" />
<glyph unicode="&#xe0;" horiz-adv-x="1120" d="M70 274q0 66 19.5 117t52 88.5t76 63t91 41t97 22t94.5 6.5q72 0 121 -4.5t89 -12.5l1 85q0 55 -16 95.5t-45 67t-69.5 39.5t-90.5 13q-47 0 -90 -6.5t-80.5 -17t-69 -24t-53.5 -28.5l-61 129q37 24 81 44.5t92.5 35t99 23t99.5 8.5q90 0 162 -21.5t122 -66.5t77 -114.5 t27 -166.5l-1 -518h115v-172h-301v96q-59 -55 -130.5 -90t-162.5 -35q-76 0 -139.5 24t-109.5 65.5t-71.5 96.5t-25.5 117zM250 291q0 -41 15 -71.5t42.5 -51t65.5 -31t84 -10.5q37 0 74 9t70 24.5t61 36t47 42.5l1 234h-216q-54 0 -98.5 -12t-77 -35t-50.5 -57t-18 -78z M221 1460v17h248l184 -299h-145z" />
<glyph unicode="&#xe1;" horiz-adv-x="1120" d="M70 274q0 66 19.5 117t52 88.5t76 63t91 41t97 22t94.5 6.5q72 0 121 -4.5t89 -12.5l1 85q0 55 -16 95.5t-45 67t-69.5 39.5t-90.5 13q-47 0 -90 -6.5t-80.5 -17t-69 -24t-53.5 -28.5l-61 129q37 24 81 44.5t92.5 35t99 23t99.5 8.5q90 0 162 -21.5t122 -66.5t77 -114.5 t27 -166.5l-1 -518h115v-172h-301v96q-59 -55 -130.5 -90t-162.5 -35q-76 0 -139.5 24t-109.5 65.5t-71.5 96.5t-25.5 117zM250 291q0 -41 15 -71.5t42.5 -51t65.5 -31t84 -10.5q37 0 74 9t70 24.5t61 36t47 42.5l1 234h-216q-54 0 -98.5 -12t-77 -35t-50.5 -57t-18 -78z M295 1178l213 299h240v-17l-299 -282h-154z" />
<glyph unicode="&#xe2;" horiz-adv-x="1120" d="M70 274q0 66 19.5 117t52 88.5t76 63t91 41t97 22t94.5 6.5q72 0 121 -4.5t89 -12.5l1 85q0 55 -16 95.5t-45 67t-69.5 39.5t-90.5 13q-47 0 -90 -6.5t-80.5 -17t-69 -24t-53.5 -28.5l-61 129q37 24 81 44.5t92.5 35t99 23t99.5 8.5q90 0 162 -21.5t122 -66.5t77 -114.5 t27 -166.5l-1 -518h115v-172h-301v96q-59 -55 -130.5 -90t-162.5 -35q-76 0 -139.5 24t-109.5 65.5t-71.5 96.5t-25.5 117zM250 291q0 -41 15 -71.5t42.5 -51t65.5 -31t84 -10.5q37 0 74 9t70 24.5t61 36t47 42.5l1 234h-216q-54 0 -98.5 -12t-77 -35t-50.5 -57t-18 -78z M239 1176l250 313h63l252 -313h-149l-133 155l-135 -155h-148z" />
<glyph unicode="&#xe3;" horiz-adv-x="1120" d="M70 274q0 66 19.5 117t52 88.5t76 63t91 41t97 22t94.5 6.5q72 0 121 -4.5t89 -12.5l1 85q0 55 -16 95.5t-45 67t-69.5 39.5t-90.5 13q-47 0 -90 -6.5t-80.5 -17t-69 -24t-53.5 -28.5l-61 129q37 24 81 44.5t92.5 35t99 23t99.5 8.5q90 0 162 -21.5t122 -66.5t77 -114.5 t27 -166.5l-1 -518h115v-172h-301v96q-59 -55 -130.5 -90t-162.5 -35q-76 0 -139.5 24t-109.5 65.5t-71.5 96.5t-25.5 117zM250 291q0 -41 15 -71.5t42.5 -51t65.5 -31t84 -10.5q37 0 74 9t70 24.5t61 36t47 42.5l1 234h-216q-54 0 -98.5 -12t-77 -35t-50.5 -57t-18 -78z M161 1251q13 47 37 78.5t54 50.5t64.5 27t69.5 8q50 0 86.5 -16.5t68 -36t62.5 -35.5t70 -16q28 0 54.5 19t35.5 61l119 -35q-20 -85 -78 -131.5t-139 -46.5q-56 0 -95 15.5t-71 33.5t-60 33.5t-61 15.5q-15 0 -30.5 -2t-30.5 -9.5t-27.5 -23t-19.5 -43.5z" />
<glyph unicode="&#xe4;" horiz-adv-x="1120" d="M70 274q0 66 19.5 117t52 88.5t76 63t91 41t97 22t94.5 6.5q72 0 121 -4.5t89 -12.5l1 85q0 55 -16 95.5t-45 67t-69.5 39.5t-90.5 13q-47 0 -90 -6.5t-80.5 -17t-69 -24t-53.5 -28.5l-61 129q37 24 81 44.5t92.5 35t99 23t99.5 8.5q90 0 162 -21.5t122 -66.5t77 -114.5 t27 -166.5l-1 -518h115v-172h-301v96q-59 -55 -130.5 -90t-162.5 -35q-76 0 -139.5 24t-109.5 65.5t-71.5 96.5t-25.5 117zM250 291q0 -41 15 -71.5t42.5 -51t65.5 -31t84 -10.5q37 0 74 9t70 24.5t61 36t47 42.5l1 234h-216q-54 0 -98.5 -12t-77 -35t-50.5 -57t-18 -78z M121 1360q0 26 10.5 49.5t28 41t41 28t49.5 10.5q25 0 48 -10.5t40 -28t27 -41t10 -49.5q0 -27 -10 -51t-27 -42.5t-40 -29t-48 -10.5q-26 0 -49.5 10.5t-41 29t-28 42.5t-10.5 51zM580 1360q0 26 10.5 49.5t28 41t41 28t49.5 10.5q25 0 47.5 -10.5t40 -28t27.5 -41 t10 -49.5q0 -27 -10 -51t-27.5 -42.5t-40 -29t-47.5 -10.5q-26 0 -49.5 10.5t-41 29t-28 42.5t-10.5 51z" />
<glyph unicode="&#xe5;" horiz-adv-x="1120" d="M70 274q0 66 19.5 117t52 88.5t76 63t91 41t97 22t94.5 6.5q72 0 121 -4.5t89 -12.5l1 85q0 55 -16 95.5t-45 67t-69.5 39.5t-90.5 13q-47 0 -90 -6.5t-80.5 -17t-69 -24t-53.5 -28.5l-61 129q37 24 81 44.5t92.5 35t99 23t99.5 8.5q90 0 162 -21.5t122 -66.5t77 -114.5 t27 -166.5l-1 -518h115v-172h-301v96q-59 -55 -130.5 -90t-162.5 -35q-76 0 -139.5 24t-109.5 65.5t-71.5 96.5t-25.5 117zM250 291q0 -41 15 -71.5t42.5 -51t65.5 -31t84 -10.5q37 0 74 9t70 24.5t61 36t47 42.5l1 234h-216q-54 0 -98.5 -12t-77 -35t-50.5 -57t-18 -78z M266 1433q0 52 20.5 99t55.5 81.5t81.5 55t98.5 20.5t99 -20.5t81.5 -55t55 -81.5t20.5 -99t-20.5 -98.5t-55 -81.5t-81.5 -55.5t-99 -20.5t-98.5 20.5t-81.5 55.5t-55.5 81.5t-20.5 98.5zM418 1433q0 -21 8.5 -39.5t23 -33t33 -23t39.5 -8.5t40 8.5t33.5 23t23 33t8.5 39.5 t-8.5 40t-23 33.5t-33.5 23t-40 8.5t-39.5 -8.5t-33 -23t-23 -33.5t-8.5 -40z" />
<glyph unicode="&#xe6;" horiz-adv-x="1784" d="M51 274q0 65 19.5 115t52 87t76 62t91 40t97 21.5t94.5 6.5q132 0 212 -21v3l1 92q1 55 -15 95.5t-45.5 67t-71 39.5t-91.5 13q-47 0 -90 -6.5t-80.5 -17t-69 -24t-53.5 -28.5l-61 129q37 24 81 44.5t92.5 35t99 23t99.5 8.5q115 0 199.5 -35.5t132.5 -110.5 q62 70 150.5 110t206.5 40q117 0 195.5 -35.5t128 -94t75 -133.5t35.5 -153q5 -38 6.5 -77t1.5 -76h-746q0 -54 9 -102t31 -98t103.5 -100.5t184.5 -50.5q81 0 157.5 22.5t160.5 70.5l75 -127q-102 -70 -205 -104t-214 -34q-118 0 -214 42.5t-162 128.5q-32 -39 -74.5 -71 t-92.5 -54t-105 -34t-110 -12q-84 0 -151.5 24t-115.5 65.5t-74 96.5t-26 117zM231 295q0 -42 15 -73.5t42.5 -52.5t65.5 -31.5t84 -10.5q97 0 171.5 36.5t125.5 96.5q-38 94 -44 217h-216q-54 0 -98.5 -12t-77 -35t-50.5 -57t-18 -78zM884 639h537q-4 58 -18.5 107 t-44.5 85t-77 56t-116 20q-65 0 -113.5 -18.5t-82.5 -53t-54.5 -84.5t-30.5 -112z" />
<glyph unicode="&#xe7;" horiz-adv-x="1118" d="M92 520q0 120 39 221t107 173.5t159 113.5t195 41q98 0 185.5 -34t153.5 -103h105v-172h-188q-42 75 -106.5 110t-149.5 35q-65 0 -122 -27t-99.5 -77t-67 -121.5t-24.5 -159.5q0 -87 24.5 -157t67.5 -119.5t99.5 -76t121.5 -26.5q96 0 167 46.5t113 136.5l154 -76 q-30 -64 -74 -115t-99.5 -87t-122 -55.5t-140.5 -19.5q-108 0 -199.5 40.5t-158 113.5t-103.5 174t-37 221zM358 -303q55 1 99.5 19.5t78 48.5t55 70.5t29.5 86.5l150 -45q-18 -73 -56 -130.5t-90.5 -97t-117.5 -60.5t-137 -21z" />
<glyph unicode="&#xe8;" horiz-adv-x="1175" d="M92 522q0 111 31 209.5t92.5 172t152.5 116.5t212 43q117 0 195.5 -35.5t128 -94t75 -133.5t35.5 -153q5 -38 6.5 -77t1.5 -76h-746q0 -44 6.5 -80.5t18.5 -69.5q37 -100 118.5 -150.5t184.5 -50.5q81 0 157.5 22.5t160.5 70.5l75 -127q-102 -70 -205 -104t-214 -34 q-105 0 -194.5 35t-154 104t-101 172t-36.5 240zM286 639h537q-4 58 -18.5 107t-44.5 85t-77 56t-116 20q-65 0 -113.5 -18.5t-82.5 -53t-54.5 -84.5t-30.5 -112zM257 1460v17h248l184 -299h-145z" />
<glyph unicode="&#xe9;" horiz-adv-x="1175" d="M92 522q0 111 31 209.5t92.5 172t152.5 116.5t212 43q117 0 195.5 -35.5t128 -94t75 -133.5t35.5 -153q5 -38 6.5 -77t1.5 -76h-746q0 -44 6.5 -80.5t18.5 -69.5q37 -100 118.5 -150.5t184.5 -50.5q81 0 157.5 22.5t160.5 70.5l75 -127q-102 -70 -205 -104t-214 -34 q-105 0 -194.5 35t-154 104t-101 172t-36.5 240zM286 639h537q-4 58 -18.5 107t-44.5 85t-77 56t-116 20q-65 0 -113.5 -18.5t-82.5 -53t-54.5 -84.5t-30.5 -112zM331 1178l213 299h240v-17l-299 -282h-154z" />
<glyph unicode="&#xea;" horiz-adv-x="1175" d="M92 522q0 111 31 209.5t92.5 172t152.5 116.5t212 43q117 0 195.5 -35.5t128 -94t75 -133.5t35.5 -153q5 -38 6.5 -77t1.5 -76h-746q0 -44 6.5 -80.5t18.5 -69.5q37 -100 118.5 -150.5t184.5 -50.5q81 0 157.5 22.5t160.5 70.5l75 -127q-102 -70 -205 -104t-214 -34 q-105 0 -194.5 35t-154 104t-101 172t-36.5 240zM286 639h537q-4 58 -18.5 107t-44.5 85t-77 56t-116 20q-65 0 -113.5 -18.5t-82.5 -53t-54.5 -84.5t-30.5 -112zM287 1176l250 313h63l252 -313h-149l-133 155l-135 -155h-148z" />
<glyph unicode="&#xeb;" horiz-adv-x="1175" d="M92 522q0 111 31 209.5t92.5 172t152.5 116.5t212 43q117 0 195.5 -35.5t128 -94t75 -133.5t35.5 -153q5 -38 6.5 -77t1.5 -76h-746q0 -44 6.5 -80.5t18.5 -69.5q37 -100 118.5 -150.5t184.5 -50.5q81 0 157.5 22.5t160.5 70.5l75 -127q-102 -70 -205 -104t-214 -34 q-105 0 -194.5 35t-154 104t-101 172t-36.5 240zM286 639h537q-4 58 -18.5 107t-44.5 85t-77 56t-116 20q-65 0 -113.5 -18.5t-82.5 -53t-54.5 -84.5t-30.5 -112zM201 1360q0 26 10.5 49.5t28 41t41 28t49.5 10.5q25 0 48 -10.5t40 -28t27 -41t10 -49.5q0 -27 -10 -51 t-27 -42.5t-40 -29t-48 -10.5q-26 0 -49.5 10.5t-41 29t-28 42.5t-10.5 51zM660 1360q0 26 10.5 49.5t28 41t41 28t49.5 10.5q25 0 47.5 -10.5t40 -28t27.5 -41t10 -49.5q0 -27 -10 -51t-27.5 -42.5t-40 -29t-47.5 -10.5q-26 0 -49.5 10.5t-41 29t-28 42.5t-10.5 51z" />
<glyph unicode="&#xec;" horiz-adv-x="612" d="M59 864v172h338v-864h156v-172h-492v172h148v692h-150zM0 1460v17h248l184 -299h-145z" />
<glyph unicode="&#xed;" horiz-adv-x="612" d="M59 864v172h338v-864h156v-172h-492v172h148v692h-150zM113 1178l213 299h240v-17l-299 -282h-154z" />
<glyph unicode="&#xee;" horiz-adv-x="612" d="M59 864v172h338v-864h156v-172h-492v172h148v692h-150zM58 1176l250 313h63l252 -313h-149l-133 155l-135 -155h-148z" />
<glyph unicode="&#xef;" horiz-adv-x="657" d="M92 864v172h338v-864h156v-172h-492v172h148v692h-150zM333 1403q0 26 10.5 49.5t28 41t41.5 28t51 10.5q26 0 49.5 -10.5t41 -28t28 -41t10.5 -49.5q0 -27 -10.5 -51t-28 -42.5t-41 -29t-49.5 -10.5q-27 0 -51 10.5t-41.5 29t-28 42.5t-10.5 51zM13 1403q0 26 10.5 49.5 t28 41t41.5 28t51 10.5q26 0 49.5 -10.5t41 -28t28 -41t10.5 -49.5q0 -27 -10.5 -51t-28 -42.5t-41 -29t-49.5 -10.5q-27 0 -51 10.5t-41.5 29t-28 42.5t-10.5 51z" />
<glyph unicode="&#xf0;" horiz-adv-x="1270" d="M94 529q0 103 40 190t106.5 149t152.5 97t178 35q39 0 88 -4t111 -30l-112 186l-149 -48l-52 164l109 35l-134 223h234l89 -162l170 55l53 -164l-138 -45l194 -352q51 -93 84 -179t33 -175q0 -114 -43.5 -207.5t-116.5 -160t-167.5 -103.5t-196.5 -37q-108 0 -204.5 35.5 t-169.5 104t-116 167.5t-43 226zM281 502q0 -74 27.5 -135t74.5 -105t109 -68t131 -24q73 0 135.5 22.5t108.5 65t72 104.5t26 140q0 77 -26.5 139t-71 105.5t-101.5 66.5t-117 23q-74 0 -140.5 -21.5t-117 -63.5t-80.5 -104.5t-30 -144.5z" />
<glyph unicode="&#xf1;" horiz-adv-x="1366" d="M100 0v172h144v692h-144v172h330v-122h2q33 29 70.5 55t78.5 45t85.5 30t93.5 11q83 0 150 -23t114 -70t72.5 -120.5t25.5 -173.5v-496h144v-172h-484v172h146v473q0 119 -60.5 180.5t-173.5 61.5q-65 0 -131 -31t-125 -77v-607h146v-172h-484zM323 1251q13 47 37 78.5 t54 50.5t64.5 27t69.5 8q50 0 86.5 -16.5t68 -36t62.5 -35.5t70 -16q28 0 54.5 19t35.5 61l119 -35q-20 -85 -78 -131.5t-139 -46.5q-56 0 -95 15.5t-71 33.5t-60 33.5t-61 15.5q-15 0 -30.5 -2t-30.5 -9.5t-27.5 -23t-19.5 -43.5z" />
<glyph unicode="&#xf2;" horiz-adv-x="1225" d="M86 518q1 123 39.5 224t107.5 173.5t164 111.5t209 39q115 0 210.5 -39t163.5 -110.5t106 -172.5t38 -224q0 -121 -38 -222.5t-106 -174.5t-163.5 -113.5t-210.5 -40.5q-117 0 -212 40t-163 112.5t-106 173.5t-39 223zM283 518q0 -89 25.5 -161t70 -122.5t103 -78 t124.5 -27.5q69 0 128.5 27t103.5 77.5t69 122.5t25 162q0 94 -25 167t-68.5 122t-103.5 74t-129 25q-66 0 -124.5 -25t-103 -74t-70 -122t-25.5 -167zM305 1460v17h248l184 -299h-145z" />
<glyph unicode="&#xf3;" horiz-adv-x="1225" d="M86 518q1 123 39.5 224t107.5 173.5t164 111.5t209 39q115 0 210.5 -39t163.5 -110.5t106 -172.5t38 -224q0 -121 -38 -222.5t-106 -174.5t-163.5 -113.5t-210.5 -40.5q-117 0 -212 40t-163 112.5t-106 173.5t-39 223zM283 518q0 -89 25.5 -161t70 -122.5t103 -78 t124.5 -27.5q69 0 128.5 27t103.5 77.5t69 122.5t25 162q0 94 -25 167t-68.5 122t-103.5 74t-129 25q-66 0 -124.5 -25t-103 -74t-70 -122t-25.5 -167zM379 1178l213 299h240v-17l-299 -282h-154z" />
<glyph unicode="&#xf4;" horiz-adv-x="1225" d="M86 518q1 123 39.5 224t107.5 173.5t164 111.5t209 39q115 0 210.5 -39t163.5 -110.5t106 -172.5t38 -224q0 -121 -38 -222.5t-106 -174.5t-163.5 -113.5t-210.5 -40.5q-117 0 -212 40t-163 112.5t-106 173.5t-39 223zM283 518q0 -89 25.5 -161t70 -122.5t103 -78 t124.5 -27.5q69 0 128.5 27t103.5 77.5t69 122.5t25 162q0 94 -25 167t-68.5 122t-103.5 74t-129 25q-66 0 -124.5 -25t-103 -74t-70 -122t-25.5 -167zM323 1176l250 313h63l252 -313h-149l-133 155l-135 -155h-148z" />
<glyph unicode="&#xf5;" horiz-adv-x="1225" d="M86 518q1 123 39.5 224t107.5 173.5t164 111.5t209 39q115 0 210.5 -39t163.5 -110.5t106 -172.5t38 -224q0 -121 -38 -222.5t-106 -174.5t-163.5 -113.5t-210.5 -40.5q-117 0 -212 40t-163 112.5t-106 173.5t-39 223zM283 518q0 -89 25.5 -161t70 -122.5t103 -78 t124.5 -27.5q69 0 128.5 27t103.5 77.5t69 122.5t25 162q0 94 -25 167t-68.5 122t-103.5 74t-129 25q-66 0 -124.5 -25t-103 -74t-70 -122t-25.5 -167zM245 1251q13 47 37 78.5t54 50.5t64.5 27t69.5 8q50 0 86.5 -16.5t68 -36t62.5 -35.5t70 -16q28 0 54.5 19t35.5 61 l119 -35q-20 -85 -78 -131.5t-139 -46.5q-56 0 -95 15.5t-71 33.5t-60 33.5t-61 15.5q-15 0 -30.5 -2t-30.5 -9.5t-27.5 -23t-19.5 -43.5z" />
<glyph unicode="&#xf6;" horiz-adv-x="1225" d="M86 518q1 123 39.5 224t107.5 173.5t164 111.5t209 39q115 0 210.5 -39t163.5 -110.5t106 -172.5t38 -224q0 -121 -38 -222.5t-106 -174.5t-163.5 -113.5t-210.5 -40.5q-117 0 -212 40t-163 112.5t-106 173.5t-39 223zM283 518q0 -89 25.5 -161t70 -122.5t103 -78 t124.5 -27.5q69 0 128.5 27t103.5 77.5t69 122.5t25 162q0 94 -25 167t-68.5 122t-103.5 74t-129 25q-66 0 -124.5 -25t-103 -74t-70 -122t-25.5 -167zM249 1360q0 26 10.5 49.5t28 41t41 28t49.5 10.5q25 0 48 -10.5t40 -28t27 -41t10 -49.5q0 -27 -10 -51t-27 -42.5 t-40 -29t-48 -10.5q-26 0 -49.5 10.5t-41 29t-28 42.5t-10.5 51zM708 1360q0 26 10.5 49.5t28 41t41 28t49.5 10.5q25 0 47.5 -10.5t40 -28t27.5 -41t10 -49.5q0 -27 -10 -51t-27.5 -42.5t-40 -29t-47.5 -10.5q-26 0 -49.5 10.5t-41 29t-28 42.5t-10.5 51z" />
<glyph unicode="&#xf7;" horiz-adv-x="1126" d="M51 452v162h1024v-162h-1024zM414 121q0 26 10.5 49.5t28 41t41.5 28t51 10.5q26 0 49.5 -10.5t41 -28t28 -41t10.5 -49.5q0 -27 -10.5 -51t-28 -42.5t-41 -29t-49.5 -10.5q-27 0 -51 10.5t-41.5 29t-28 42.5t-10.5 51zM414 907q0 26 10.5 49.5t28 41t41.5 28t51 10.5 q26 0 49.5 -10.5t41 -28t28 -41t10.5 -49.5q0 -27 -10.5 -51t-28 -42.5t-41 -29t-49.5 -10.5q-27 0 -51 10.5t-41.5 29t-28 42.5t-10.5 51z" />
<glyph unicode="&#xf8;" horiz-adv-x="1219" d="M52 -61l161 206q-59 72 -90 166t-31 207q0 122 37.5 223t106 173.5t163.5 112.5t209 40q78 0 146 -18t126 -52l133 170h198l-211 -270q60 -72 93 -167t33 -210q0 -124 -36.5 -225.5t-104 -174t-163.5 -112t-214 -39.5q-80 0 -149 19t-128 54l-80 -103h-199zM285 518 q0 -63 13 -117.5t37 -99.5l439 561q-36 23 -78 34t-88 11q-66 0 -124.5 -25.5t-103 -74.5t-70 -122t-25.5 -167zM441 182q37 -25 79 -38t88 -13q69 0 128.5 27t103.5 77t69 121.5t25 161.5q0 69 -13.5 126t-38.5 102z" />
<glyph unicode="&#xf9;" horiz-adv-x="1350" d="M60 864v172h334v-645q0 -119 55 -180t158 -61q61 0 128.5 22t127.5 61v631h-139v172h334v-864h115v-172h-302v96q-70 -54 -152.5 -84t-176.5 -30q-78 0 -141.5 22.5t-108 70t-68.5 120.5t-24 174v495h-140zM316 1460v17h248l184 -299h-145z" />
<glyph unicode="&#xfa;" horiz-adv-x="1350" d="M60 864v172h334v-645q0 -119 55 -180t158 -61q61 0 128.5 22t127.5 61v631h-139v172h334v-864h115v-172h-302v96q-70 -54 -152.5 -84t-176.5 -30q-78 0 -141.5 22.5t-108 70t-68.5 120.5t-24 174v495h-140zM390 1178l213 299h240v-17l-299 -282h-154z" />
<glyph unicode="&#xfb;" horiz-adv-x="1350" d="M60 864v172h334v-645q0 -119 55 -180t158 -61q61 0 128.5 22t127.5 61v631h-139v172h334v-864h115v-172h-302v96q-70 -54 -152.5 -84t-176.5 -30q-78 0 -141.5 22.5t-108 70t-68.5 120.5t-24 174v495h-140zM334 1176l250 313h63l252 -313h-149l-133 155l-135 -155h-148z " />
<glyph unicode="&#xfc;" horiz-adv-x="1350" d="M60 864v172h334v-645q0 -119 55 -180t158 -61q61 0 128.5 22t127.5 61v631h-139v172h334v-864h115v-172h-302v96q-70 -54 -152.5 -84t-176.5 -30q-78 0 -141.5 22.5t-108 70t-68.5 120.5t-24 174v495h-140zM260 1360q0 26 10.5 49.5t28 41t41 28t49.5 10.5q25 0 48 -10.5 t40 -28t27 -41t10 -49.5q0 -27 -10 -51t-27 -42.5t-40 -29t-48 -10.5q-26 0 -49.5 10.5t-41 29t-28 42.5t-10.5 51zM719 1360q0 26 10.5 49.5t28 41t41 28t49.5 10.5q25 0 47.5 -10.5t40 -28t27.5 -41t10 -49.5q0 -27 -10 -51t-27.5 -42.5t-40 -29t-47.5 -10.5 q-26 0 -49.5 10.5t-41 29t-28 42.5t-10.5 51z" />
<glyph unicode="&#xfd;" horiz-adv-x="1176" d="M31 864v172h393v-172h-123l243 -661l254 661h-122v172h393v-172h-107l-461 -1163h142v-172h-418v172h126l110 285l-346 878h-84zM415 1178l213 299h240v-17l-299 -282h-154z" />
<glyph unicode="&#xfe;" horiz-adv-x="1243" d="M55 -299h144v1704h-142v172h328v-627q66 51 144 81t161 30q102 0 187 -38t146.5 -107t95.5 -165.5t34 -213.5q0 -125 -38 -226.5t-105.5 -174.5t-160.5 -112.5t-204 -39.5q-77 0 -144.5 22t-115.5 59v-364h162v-172h-492v172zM385 229q32 -33 94 -58.5t156 -25.5 q64 0 123 24t104 72.5t72 120.5t27 168q0 88 -25.5 156t-69 115t-101.5 71.5t-124 24.5q-73 0 -140 -30t-116 -81v-557z" />
<glyph unicode="&#xff;" horiz-adv-x="1176" d="M188 1361q0 26 10.5 49.5t28 41t41.5 28t51 10.5q26 0 49.5 -10.5t41 -28t28 -41t10.5 -49.5q0 -27 -10.5 -51t-28 -42.5t-41 -29t-49.5 -10.5q-27 0 -51 10.5t-41.5 29t-28 42.5t-10.5 51zM647 1361q0 26 10.5 49.5t28 41t41.5 28t51 10.5q26 0 49.5 -10.5t41 -28 t28 -41t10.5 -49.5q0 -27 -10.5 -51t-28 -42.5t-41 -29t-49.5 -10.5q-27 0 -51 10.5t-41.5 29t-28 42.5t-10.5 51zM31 864v172h393v-172h-123l243 -661l254 661h-122v172h393v-172h-107l-461 -1163h142v-172h-418v172h126l110 285l-346 878h-84z" />
<glyph unicode="&#x131;" horiz-adv-x="612" d="M59 864v172h338v-864h156v-172h-492v172h148v692h-150z" />
<glyph unicode="&#x152;" horiz-adv-x="2883" d="M1740 0v172h144v1171h-144v173h1086v-429h-205v256h-541v-485h455v-172h-455v-514h541v256h205v-428h-1086zM72 758q0 164 53.5 308t150 250.5t230 168t293.5 61.5q161 0 295 -61.5t230 -168t149 -250.5t53 -308t-53.5 -307.5t-150 -250.5t-230 -168.5t-293.5 -61.5 q-157 0 -287 58.5t-232 166.5t-155 256t-53 307zM276 758q0 -140 41 -249.5t108.5 -182t161 -121.5t212.5 -49t215.5 49t164.5 131.5t105 191.5t37 230q0 124 -40.5 239.5t-113 195.5t-168.5 123.5t-200 43.5q-119 0 -216 -49t-165 -131.5t-105 -192t-37 -229.5z" />
<glyph unicode="&#x153;" horiz-adv-x="2400" d="M1317 522q0 111 31 209.5t92.5 172t152.5 116.5t212 43q117 0 195.5 -35.5t128 -94t75 -133.5t35.5 -153q5 -38 6.5 -77t1.5 -76h-746q0 -44 6.5 -80.5t18.5 -69.5q37 -100 118.5 -150.5t184.5 -50.5q81 0 157.5 22.5t160.5 70.5l75 -127q-102 -70 -205 -104t-214 -34 q-105 0 -194.5 35t-154 104t-101 172t-36.5 240zM1511 639h537q-4 58 -18.5 107t-44.5 85t-77 56t-116 20q-65 0 -113.5 -18.5t-82.5 -53t-54.5 -84.5t-30.5 -112zM86 518q1 123 39.5 224t107.5 173.5t164 111.5t209 39q115 0 210.5 -39t163.5 -110.5t106 -172.5t38 -224 q0 -121 -38 -222.5t-106 -174.5t-163.5 -113.5t-210.5 -40.5q-117 0 -212 40t-163 112.5t-106 173.5t-39 223zM283 518q0 -89 25.5 -161t70 -122.5t103 -78t124.5 -27.5q69 0 128.5 27t103.5 77.5t69 122.5t25 162q0 94 -25 167t-68.5 122t-103.5 74t-129 25 q-66 0 -124.5 -25t-103 -74t-70 -122t-25.5 -167z" />
<glyph unicode="&#x178;" horiz-adv-x="1354" d="M51 1343v173h492v-173h-144l285 -487l305 487h-158v173h492v-173h-129l-426 -646v-525h156v-172h-492v172h139v530l-402 641h-118zM338 1840q0 26 10.5 49.5t28 41t41.5 28t51 10.5q26 0 49.5 -10.5t41 -28t28 -41t10.5 -49.5q0 -27 -10.5 -51t-28 -42.5t-41 -29 t-49.5 -10.5q-27 0 -51 10.5t-41.5 29t-28 42.5t-10.5 51zM797 1840q0 26 10.5 49.5t28 41t41.5 28t51 10.5q26 0 49.5 -10.5t41 -28t28 -41t10.5 -49.5q0 -27 -10.5 -51t-28 -42.5t-41 -29t-49.5 -10.5q-27 0 -51 10.5t-41.5 29t-28 42.5t-10.5 51z" />
<glyph unicode="&#x2c6;" horiz-adv-x="860" d="M217 1176l250 313h63l252 -313h-149l-133 155l-135 -155h-148z" />
<glyph unicode="&#x2d9;" horiz-adv-x="612" d="M174 1403q0 26 10.5 49.5t28 41t41.5 28t51 10.5q26 0 49.5 -10.5t41 -28t28 -41t10.5 -49.5q0 -27 -10.5 -51t-28 -42.5t-41 -29t-49.5 -10.5q-27 0 -51 10.5t-41.5 29t-28 42.5t-10.5 51z" />
<glyph unicode="&#x2da;" horiz-adv-x="1200" d="M354 1212q0 52 20.5 99t55.5 81.5t81.5 55t98.5 20.5t99 -20.5t81.5 -55t55 -81.5t20.5 -99t-20.5 -98.5t-55 -81.5t-81.5 -55.5t-99 -20.5t-98.5 20.5t-81.5 55.5t-55.5 81.5t-20.5 98.5zM506 1212q0 -21 8.5 -39.5t23 -33t33 -23t39.5 -8.5t40 8.5t33.5 23t23 33 t8.5 39.5t-8.5 40t-23 33.5t-33.5 23t-40 8.5t-39.5 -8.5t-33 -23t-23 -33.5t-8.5 -40z" />
<glyph unicode="&#x2dc;" horiz-adv-x="1000" d="M88 1251q13 47 37 78.5t54 50.5t64.5 27t69.5 8q50 0 86.5 -16.5t68 -36t62.5 -35.5t70 -16q28 0 54.5 19t35.5 61l119 -35q-20 -85 -78 -131.5t-139 -46.5q-56 0 -95 15.5t-71 33.5t-60 33.5t-61 15.5q-15 0 -30.5 -2t-30.5 -9.5t-27.5 -23t-19.5 -43.5z" />
<glyph unicode="&#x2000;" horiz-adv-x="984" />
<glyph unicode="&#x2001;" horiz-adv-x="1969" />
<glyph unicode="&#x2002;" horiz-adv-x="984" />
<glyph unicode="&#x2003;" horiz-adv-x="1969" />
<glyph unicode="&#x2004;" horiz-adv-x="656" />
<glyph unicode="&#x2005;" horiz-adv-x="492" />
<glyph unicode="&#x2006;" horiz-adv-x="328" />
<glyph unicode="&#x2007;" horiz-adv-x="328" />
<glyph unicode="&#x2008;" horiz-adv-x="246" />
<glyph unicode="&#x2009;" horiz-adv-x="393" />
<glyph unicode="&#x200a;" horiz-adv-x="109" />
<glyph unicode="&#x2010;" horiz-adv-x="737" d="M94 496v172h551v-172h-551z" />
<glyph unicode="&#x2011;" horiz-adv-x="737" d="M94 496v172h551v-172h-551z" />
<glyph unicode="&#x2012;" horiz-adv-x="737" d="M94 496v172h551v-172h-551z" />
<glyph unicode="&#x2013;" horiz-adv-x="1024" d="M0 485v162h1024v-162h-1024z" />
<glyph unicode="&#x2014;" horiz-adv-x="2048" d="M0 485v162h2048v-162h-2048z" />
<glyph unicode="&#x2018;" horiz-adv-x="606" d="M113 1057l249 499l132 -63l-191 -514z" />
<glyph unicode="&#x2019;" horiz-adv-x="606" d="M92 995l184 570l220 -86l-260 -537z" />
<glyph unicode="&#x201c;" horiz-adv-x="1065" d="M129 1057l250 499l131 -63l-191 -514zM555 1057l250 499l131 -63l-191 -514z" />
<glyph unicode="&#x201d;" horiz-adv-x="1028" d="M92 1042l191 514l190 -77l-250 -500zM518 1042l191 514l190 -77l-250 -500z" />
<glyph unicode="&#x201e;" horiz-adv-x="1005" d="M20 -287l185 570l219 -86l-260 -537zM481 -287l185 570l219 -86l-260 -537z" />
<glyph unicode="&#x2022;" horiz-adv-x="811" d="M154 780q0 52 19.5 98t53.5 80.5t80 54t99 19.5q52 0 98 -19.5t80 -53.5t53.5 -80t19.5 -99t-19.5 -99t-53.5 -80t-80 -53.5t-98 -19.5q-53 0 -99 19.5t-80 53.5t-53.5 80t-19.5 99z" />
<glyph unicode="&#x2026;" horiz-adv-x="2048" d="M205 123q0 30 11.5 56.5t32 47t47 32t56.5 11.5q31 0 58 -11.5t47.5 -32t32.5 -47t12 -56.5t-12 -57t-32.5 -47t-47.5 -32t-58 -12q-30 0 -56.5 12t-47 32t-32 47t-11.5 57zM877 123q0 30 11.5 56.5t32 47t47 32t56.5 11.5q31 0 58 -11.5t47.5 -32t32.5 -47t12 -56.5 t-12 -57t-32.5 -47t-47.5 -32t-58 -12q-30 0 -56.5 12t-47 32t-32 47t-11.5 57zM1548 123q0 30 12 56.5t32 47t47 32t57 11.5q31 0 58 -11.5t47 -32t32 -47t12 -56.5t-12 -57t-32 -47t-47 -32t-58 -12q-30 0 -57 12t-47 32t-32 47t-12 57z" />
<glyph unicode="&#x202f;" horiz-adv-x="393" />
<glyph unicode="&#x2039;" horiz-adv-x="616" d="M102 565l220 393h192l-229 -393l229 -393h-192z" />
<glyph unicode="&#x203a;" horiz-adv-x="616" d="M102 172l230 393l-230 393h193l219 -393l-219 -393h-193z" />
<glyph unicode="&#x205f;" horiz-adv-x="492" />
<glyph unicode="&#x2122;" horiz-adv-x="3623" d="M1577 0v172h144v1153h-144v191h480l481 -1309l487 1309h455v-191h-143v-1153h143v-172h-492v172h162v1164l-530 -1336h-170l-537 1339v-1167h156v-172h-492zM41 1116v400h1352v-400h-205v236h-400v-1180h156v-172h-491v172h139v1180h-346v-236h-205z" />
<glyph unicode="&#xe000;" horiz-adv-x="1035" d="M0 1035h1035v-1035h-1035v1035z" />
<glyph unicode="&#xfb01;" horiz-adv-x="1402" d="M837 864v172h338v-864h156v-172h-492v172h148v692h-150zM952 1403q0 26 10.5 49.5t28 41t41.5 28t51 10.5q26 0 49.5 -10.5t41 -28t28 -41t10.5 -49.5q0 -27 -10.5 -51t-28 -42.5t-41 -29t-49.5 -10.5q-27 0 -51 10.5t-41.5 29t-28 42.5t-10.5 51zM85 885v151h171v162 q2 90 26 157t68 112t106 67t138 22q53 0 95 -5t75 -13.5t58.5 -18.5t45.5 -20l-57 -133q-32 17 -83.5 29t-107.5 12q-83 0 -130.5 -51.5t-47.5 -151.5v-168h240v-151h-240v-713h162v-172h-504v172h156v713h-171z" />
<glyph unicode="&#xfb02;" horiz-adv-x="1411" d="M837 0v172h150v1212h-150v172h336v-1384h156v-172h-492zM85 885v151h171v162q2 90 26 157t68 112t106 67t138 22q53 0 95 -5t75 -13.5t58.5 -18.5t45.5 -20l-57 -133q-32 17 -83.5 29t-107.5 12q-83 0 -130.5 -51.5t-47.5 -151.5v-168h240v-151h-240v-713h162v-172h-504 v172h156v713h-171z" />
<glyph unicode="&#xfb03;" horiz-adv-x="2147" d="M1582 864v172h338v-864h156v-172h-492v172h148v692h-150zM1697 1403q0 26 10.5 49.5t28 41t41.5 28t51 10.5q26 0 49.5 -10.5t41 -28t28 -41t10.5 -49.5q0 -27 -10.5 -51t-28 -42.5t-41 -29t-49.5 -10.5q-27 0 -51 10.5t-41.5 29t-28 42.5t-10.5 51zM830 885v151h171v162 q2 90 26 157t68 112t106 67t138 22q53 0 95 -5t75 -13.5t58.5 -18.5t45.5 -20l-57 -133q-32 17 -83.5 29t-107.5 12q-83 0 -130.5 -51.5t-47.5 -151.5v-168h240v-151h-240v-713h162v-172h-504v172h156v713h-171zM85 885v151h171v162q2 90 26 157t68 112t106 67t138 22 q53 0 95 -5t75 -13.5t58.5 -18.5t45.5 -20l-57 -133q-32 17 -83.5 29t-107.5 12q-83 0 -130.5 -51.5t-47.5 -151.5v-168h240v-151h-240v-713h162v-172h-504v172h156v713h-171z" />
<glyph unicode="&#xfb04;" horiz-adv-x="2156" d="M1582 0v172h150v1212h-150v172h336v-1384h156v-172h-492zM830 885v151h171v162q2 90 26 157t68 112t106 67t138 22q53 0 95 -5t75 -13.5t58.5 -18.5t45.5 -20l-57 -133q-32 17 -83.5 29t-107.5 12q-83 0 -130.5 -51.5t-47.5 -151.5v-168h240v-151h-240v-713h162v-172 h-504v172h156v713h-171zM85 885v151h171v162q2 90 26 157t68 112t106 67t138 22q53 0 95 -5t75 -13.5t58.5 -18.5t45.5 -20l-57 -133q-32 17 -83.5 29t-107.5 12q-83 0 -130.5 -51.5t-47.5 -151.5v-168h240v-151h-240v-713h162v-172h-504v172h156v713h-171z" />
</font>
</defs>
</svg>
